<?xml version="1.0" standalone="no"?>
<!DOCTYPE svg PUBLIC "-//W3C//DTD SVG 1.1//EN" "http://www.w3.org/Graphics/SVG/1.1/DTD/svg11.dtd">
<svg xmlns="http://www.w3.org/2000/svg">
<defs >
<font id="PlayfairDisplay" horiz-adv-x="582" ><font-face
    font-family="Playfair Display Black"
    units-per-em="1000"
    panose-1="0 0 0 0 0 0 0 0 0 0"
    ascent="1082"
    descent="-251"
    alphabetic="0" />
<glyph unicode=" " horiz-adv-x="257" />
<glyph unicode="!" horiz-adv-x="348" d="M136 199Q150 259 151 316T148 430T144 548Q144 586 151 627T174 703T217 760T287 782Q326 782 348 760T371 690Q371 638 346 582T284 465T211 338T154 196L136 199ZM36 52Q36 99 68 128T148 158Q186 158 206 141T227
90Q227 63 212 40T172 1T114 -14Q76 -14 56 3T36 52Z" />
<glyph unicode="&quot;" horiz-adv-x="454" d="M303 673Q303 639 281 605T231 537T184 468H170Q164 506 156 532T141 580T135 624Q135 665 163 697T238 730Q267 730 284 715T303 673ZM501 673Q501 639 479 605T429 537T382 468H368Q362 506 354 532T339 580T333
624Q333 665 361 697T436 730Q465 730 482 715T501 673Z" />
<glyph unicode="#" horiz-adv-x="616" d="M622 454L614 434H113L121 454H622ZM536 267L526 247H26L35 267H536ZM316 101H292L524 602H548L316 101ZM129 101H105L337 602H361L129 101Z" />
<glyph unicode="$" horiz-adv-x="649" d="M437 840L167 -132H145L415 840H437ZM521 840L251 -132H229L499 840H521ZM400 699Q357 699 325 677T292 608Q292 577 313 547T367 487T438 424T509 358T564 287T585 208Q585 154 565 116T511 52T436 13T353 -8T274 -14Q231
-14 197 -9T135 6T80 32Q43 55 24 86T5 157Q5 207 29 241T93 276Q131 276 154 249T178 178Q178 149 169 122T148 73T126 37Q150 22 182 16T255 9Q310 9 339 21T380 56T392 107Q392 136 373 165T322 224T257 285T191 350T141 421T121 499Q121 564 145 607T210 676T296
711T384 722Q428 722 461 717T523 702T578 676Q616 654 634 623T653 551Q653 501 630 467T565 432Q527 432 504 459T480 530Q480 560 489 586T511 635T532 671Q508 686 474 692T400 699Z" />
<glyph unicode="%" horiz-adv-x="816" d="M341 748Q316 748 297 724T265 663T246 585T239 513Q239 484 245 468T261 451Q286 451 305 475T337 536T356 614T363 687Q363 716 358 732T341 748ZM112 562Q112 598 129 633T179 697T254 743T349 761Q415 761 452 729T490
637Q490 601 473 566T424 502T349 456T254 438Q188 438 150 470T112 562ZM599 296Q574 296 555 272T523 211T504 133T497 61Q497 32 503 16T519 -1Q544 -1 563 23T595 84T614 162T621 235Q621 264 616 280T599 296ZM370 110Q370 146 387 181T437 245T512 291T607
309Q673 309 710 277T748 185Q748 149 731 114T682 50T607 4T512 -14Q446 -14 408 18T370 110ZM847 824L862 811L29 -55L14 -42L847 824Z" />
<glyph unicode="&amp;" horiz-adv-x="894" d="M580 209Q573 193 557 175T514 144T453 131Q422 131 393 143T344 183T325 255Q325 317 369 364T506 440Q539 450 572 460T638 480T705 500T771 520Q799 529 830 540T883 570T905 624Q905 663 876 684T806 705Q790
705 779 701Q808 690 822 672T837 629Q837 603 822 584T782 556T732 546Q692 546 667 568T641 624Q641 655 660 676T711 708Q733 717 757 719T798 722Q838 722 870 709T922 664T941 576Q941 511 914 468T834 396T706 344Q678 335 650 327T594 310T537 294T481 276Q451
267 432 256T404 231T395 200Q395 172 415 162T457 152Q486 152 507 162T543 188T563 216L580 209ZM476 578Q497 578 511 591T526 623Q526 640 512 651T471 662Q439 662 409 645T359 597T339 524Q339 517 340 510T342 494Q360 497 378 498T405 500Q441 500 441
479Q441 468 431 463T410 458Q391 458 372 466T341 480Q312 467 289 435T252 360T238 267Q238 205 262 164T333 101T448 80Q495 80 541 90T626 123T687 180T711 266Q711 304 693 339T626 394L637 405Q683 387 707 348T732 259Q732 213 710 165T641 77T522 11T351
-14Q260 -14 186 10T67 85T23 211Q23 279 59 335T164 431T328 488Q275 502 252 529T228 587Q228 626 256 651T329 689T421 702Q489 702 519 681T549 626Q549 592 525 576T477 560L476 578Z" />
<glyph unicode="&apos;" horiz-adv-x="256" d="M303 673Q303 639 281 605T231 537T184 468H170Q164 506 156 532T141 580T135 624Q135 665 163 697T238 730Q267 730 284 715T303 673Z" />
<glyph unicode="(" horiz-adv-x="420" d="M263 -182Q194 -124 143 -65T63 65T34 223Q34 307 71 388T174 546T331 688T527 806L537 793Q439 719 366 631T252 432T211 177Q211 110 219 54T242 -57T281 -169L263 -182Z" />
<glyph unicode=")" horiz-adv-x="421" d="M167 806Q236 749 287 689T367 559T396 401Q396 317 359 236T256 78T99 -64T-97 -182L-107 -169Q-9 -95 64 -7T178 192T219 447Q219 514 211 571T188 681T149 793L167 806Z" />
<glyph unicode="*" horiz-adv-x="477" d="M298 518Q333 574 359 610T392 675Q400 705 385 717T349 729Q328 729 308 717T279 675Q272 647 280 609T295 518H298ZM297 519Q271 566 256 598T220 645Q198 660 177 651T140 623Q125 605 122 584T140 547Q160 533 200
529T295 516L297 519ZM296 518Q235 509 195 506T125 488Q95 473 88 452T88 412Q93 394 110 385T158 390Q185 404 217 438T297 516L296 518ZM295 517Q260 462 235 426T201 361Q194 331 208 319T245 307Q265 307 286 319T314 361Q322 390 314 427T299 518L295 517ZM453
413Q468 431 472 452T453 489Q433 503 393 507T298 520L296 517Q322 471 337 438T373 391Q396 376 417 385T453 413ZM505 624Q500 642 483 651T435 646Q408 632 376 598T296 520L297 517Q359 527 399 530T468 548Q498 563 505 584T505 624Z" />
<glyph unicode="+" horiz-adv-x="569" d="M55 370H288L355 606H391L324 370H556L547 340H315L248 105H212L279 340H46L55 370Z" />
<glyph unicode="," horiz-adv-x="310" d="M192 76Q192 6 152 -51T42 -138L37 -120Q78 -103 111 -67T147 17Q133 2 115 -6T77 -14Q40 -14 20 3T-1 52Q-1 83 13 107T53 144T111 158Q149 158 170 139T192 76Z" />
<glyph unicode="-" horiz-adv-x="507" d="M80 321H441L414 222H53L80 321Z" />
<glyph unicode="." horiz-adv-x="302" d="M-1 52Q-1 99 31 128T111 158Q149 158 169 141T190 90Q190 63 175 40T135 1T77 -14Q39 -14 19 3T-1 52Z" />
<glyph unicode="/" horiz-adv-x="456" d="M-47 -14L501 722H534L-14 -14H-47Z" />
<glyph unicode="0" horiz-adv-x="659" d="M398 533Q502 533 561 483T621 347Q621 280 591 216T509 99T388 17T242 -14Q140 -14 80 36T19 172Q19 240 49 304T131 420T252 502T398 533ZM384 515Q341 515 307 482T249 393T213 273T201 145Q201 71 217 38T256 4Q299
4 333 38T390 127T426 247T439 374Q439 448 423 481T384 515Z" />
<glyph unicode="1" horiz-adv-x="391" d="M376 530L217 0H40L164 415Q139 408 112 402T42 386L45 407Q125 425 182 445T280 488T356 530H376Z" />
<glyph unicode="2" horiz-adv-x="556" d="M328 533Q411 533 458 503T505 424Q505 388 481 357T419 298T337 247T250 200T177 157Q199 157 224 150T279 136T341 129Q382 129 410 141T438 177Q438 203 406 221L416 234Q447 217 459 196T472 145Q472 109 454 74T398
17T296 -6Q263 -6 231 1T166 15T93 24Q53 26 29 20T-27 0L-22 21Q-4 36 28 60T101 115T181 183T256 260T311 341T332 424Q332 465 311 483T256 501Q225 501 195 488T139 454T99 405T84 350Q84 326 97 314T141 302Q170 302 190 312T234 343L246 329Q218 303 189
292T135 281Q119 281 102 286T72 306T60 349Q60 382 79 414T133 474T217 517T328 533Z" />
<glyph unicode="3" horiz-adv-x="539" d="M314 533Q399 533 448 505T497 432Q497 396 474 367T414 314T334 275T250 250Q310 249 357 237T432 196T460 121Q460 72 424 30T329 -45T197 -101T49 -137T-91 -151L-86 -133Q-28 -129 35 -110T154 -57T243 27T277 143Q277
183 266 207T232 234Q216 227 202 222T174 217Q166 217 160 220T157 232Q160 246 179 249T224 250Q255 264 279 285T317 336T332 401Q332 443 306 467T231 491Q204 491 179 482T133 456T101 421T89 380Q89 356 102 344T147 332Q181 332 209 347L220 332Q199 321
179 316T140 311Q124 311 107 316T77 336T65 379Q65 416 98 451T187 509T314 533Z" />
<glyph unicode="4" horiz-adv-x="549" d="M452 533L458 511L-39 64L-41 75H483L477 54H-62L-56 75L452 533ZM478 533L297 -141H120L250 339L452 533H478Z" />
<glyph unicode="5" horiz-adv-x="480" d="M436 538L448 531Q422 458 383 415T291 371Q268 371 241 381T189 400T143 406L63 225Q95 243 136 252T227 261Q323 261 366 229T410 139Q410 85 377 41T290 -38T169 -97T34 -133T-93 -148L-88 -130Q-37 -130 17 -112T119
-60T195 24T225 137Q225 181 206 206T139 231Q125 231 103 227T49 204L39 209L170 518Q199 520 225 514T278 500T337 493Q370 493 394 502T436 538Z" />
<glyph unicode="6" horiz-adv-x="593" d="M560 722L566 702Q515 687 464 653T366 568T282 448T224 295T203 113Q203 49 213 28T242 6Q270 6 294 36T337 112T365 208T375 299Q375 346 363 362T336 379Q317 379 297 358T263 288L246 293Q260 346 283 378T338 424T407
438Q472 438 515 400T559 286Q559 228 532 174T457 78T346 11T211 -14Q123 -14 73 30T22 173Q22 259 58 337T153 481T283 597T426 680T560 722Z" />
<glyph unicode="7" horiz-adv-x="514" d="M205 524Q250 524 288 514T366 492T458 480Q484 479 508 485T551 518H580Q523 455 480 406T404 313T347 225T304 130T268 12Q260 -20 258 -32T255 -50T252 -67Q245 -101 219 -124T144 -148Q103 -148 86 -131T67 -86T72
-32Q87 23 127 80T221 193T334 302T447 404T541 492Q541 492 548 493T556 494Q504 463 467 438T401 394T346 366T289 356Q258 356 236 364T193 381T146 389Q120 389 101 377T82 335Q82 299 112 277T191 243L186 226Q120 240 79 274T38 372Q38 409 54 444T108 501T205
524Z" />
<glyph unicode="8" horiz-adv-x="595" d="M432 722Q484 722 525 711T591 675T616 614Q616 578 592 546T530 487T448 438T366 400L362 404Q385 426 404 460T434 537T445 624Q445 704 403 704Q380 704 358 684T323 631T309 564Q309 517 331 483T385 421T449 365T503
303T525 220Q525 170 498 127T425 53T321 4T199 -14Q143 -14 95 0T18 43T-11 118Q-11 160 14 196T81 264T174 321T278 364L282 360Q251 336 225 297T183 207T167 101Q167 58 179 31T226 4Q259 4 289 28T339 90T358 172Q358 221 337 256T286 321T225 379T173 441T152
521Q152 566 175 603T237 666T326 707T432 722Z" />
<glyph unicode="9" d="M360 533Q449 533 499 489T549 346Q549 263 514 188T421 48T293 -66T152 -147T21 -188L15 -168Q64 -154 114 -121T210 -36T291 82T347 230T368 406Q368 470 359 491T329 513Q301 513 277 483T234 407T206 311T196 220Q196 174 208 157T235
140Q254 140 274 161T308 231L325 226Q311 173 288 141T234 95T164 81Q100 81 56 119T12 233Q12 292 39 345T114 441T225 508T360 533Z" />
<glyph unicode=":" horiz-adv-x="333" d="M112 427Q112 474 144 503T224 533Q262 533 282 516T303 465Q303 438 288 415T248 376T190 361Q152 361 132 378T112 427ZM12 52Q12 99 44 128T124 158Q162 158 182 141T203 90Q203 63 188 40T148 1T90 -14Q52 -14 32 3T12 52Z" />
<glyph unicode=";" horiz-adv-x="338" d="M120 427Q120 474 152 503T232 533Q270 533 290 516T311 465Q311 438 296 415T256 376T198 361Q160 361 140 378T120 427ZM199 76Q199 6 159 -51T49 -138L44 -120Q85 -103 118 -67T154 17Q140 2 122 -6T84 -14Q47 -14
27 3T6 52Q6 83 20 107T60 144T118 158Q156 158 177 139T199 76Z" />
<glyph unicode="&lt;" horiz-adv-x="588" d="M598 582L608 553L121 351L452 177L436 145L46 355L598 582Z" />
<glyph unicode="=" horiz-adv-x="641" d="M59 270L68 300H569L560 270H59ZM99 410L108 440H609L600 410H99Z" />
<glyph unicode="&gt;" horiz-adv-x="591" d="M55 155L45 184L505 376L135 574L151 603L580 372L55 155Z" />
<glyph unicode="?" horiz-adv-x="518" d="M293 757Q285 757 272 756T245 751T219 739Q244 741 266 731T303 703T318 661Q318 625 292 599T225 572Q191 572 163 594T134 657Q134 695 155 719T210 757T282 776T354 782Q410 782 460 768T542 726T574 654Q574 625
554 596T493 532T386 450Q319 402 285 372T238 319T226 270Q226 245 242 227T292 209Q308 209 324 212T356 223Q334 231 314 250T294 304Q294 339 317 362T379 385Q408 385 430 365T453 314Q453 278 433 254T382 215T317 194T252 187Q204 187 164 200T99 240T75
309Q75 347 95 378T149 439T222 500Q269 538 302 566T353 620T371 678Q371 713 351 735T293 757ZM113 52Q113 99 145 128T225 158Q263 158 283 141T304 90Q304 63 289 40T249 1T191 -14Q153 -14 133 3T113 52Z" />
<glyph unicode="@" horiz-adv-x="873" d="M603 63Q617 63 643 74T699 107T757 164T802 247T820 356Q820 443 782 499T676 583T518 610Q427 610 353 585T221 515T126 413T68 293T48 167Q48 88 77 32T155 -58T265 -108T393 -124Q464 -124 532 -107T655 -59L661 -72Q614
-102 546 -121T394 -141Q326 -141 261 -125T143 -74T59 20T27 165Q27 231 47 297T107 422T206 528T344 601T518 628Q616 628 688 598T801 508T841 357Q841 273 810 211T729 108T626 47T527 26Q489 26 470 39T446 73T445 118T456 167L546 464Q583 464 623 467T697
478L591 121Q582 90 585 77T603 63ZM476 201Q458 132 432 94T373 41T306 26Q275 26 247 37T202 76T185 149Q185 189 198 233T236 321T294 400T369 457T455 478Q508 478 521 447T526 365L514 356Q517 369 517 387T512 420T488 435Q469 435 445 410T397 344T358 251T342
146Q342 115 349 101T375 86Q405 86 428 120T472 218L476 201Z" />
<glyph unicode="A" horiz-adv-x="669" d="M47 131Q20 93 23 70T51 35T115 20L111 0Q59 2 28 2T-31 3Q-52 3 -66 3T-96 0L-92 20Q-72 26 -56 38T-19 74T30 139L438 713Q456 711 476 711T513 713L553 84Q556 48 571 35T602 20L598 0Q569 2 520 2T429 3Q378 3 332
3T259 0L263 20Q311 22 331 37T349 104L326 542L379 600L47 131ZM149 288H441L433 268H131L149 288Z" />
<glyph unicode="B" horiz-adv-x="710" d="M460 707Q591 707 646 671T702 572Q702 519 666 474T561 401T390 370Q517 372 586 329T656 220Q656 168 632 127T563 58T453 15T306 0Q279 0 239 1T129 3Q102 3 69 3T5 2T-48 0L-44 20Q-10 22 9 28T39 52T59 106L191 602Q199
633 199 651T186 678T132 688L137 708Q158 707 189 707T253 706T311 705Q365 705 397 706T460 707ZM277 359L281 376H348Q401 376 436 409T488 494T506 603Q506 638 496 663T450 688Q429 688 419 674T397 617L262 106Q258 89 255 70T260 37T294 23Q338 23 371 55T424
137T444 240Q444 271 436 298T406 342T348 359H277Z" />
<glyph unicode="C" horiz-adv-x="708" d="M768 708Q753 669 737 614T704 478H682Q691 528 691 568T675 637Q656 670 629 682T565 694Q517 694 473 670T391 601T326 497T283 368T267 223Q267 119 302 72T398 24Q431 24 466 39T528 82Q555 111 574 146T618 240H640Q615
149 602 94T581 0H559Q562 21 562 34Q562 54 554 58T529 51Q503 33 472 18T405 -5T329 -14Q176 -14 107 54T37 242Q37 314 61 383T130 514T238 622T378 695T544 722Q584 722 611 713T658 689T692 657Q705 641 718 654T747 708H768Z" />
<glyph unicode="D" horiz-adv-x="802" d="M791 457Q791 398 774 335T720 212T624 104T481 28T285 0Q269 0 248 1T197 2T127 3Q104 3 72 3T8 2T-43 0L-40 20Q-8 22 10 28T40 52T60 106L191 602Q198 628 197 646T182 675T133 688L136 708Q157 707 190 706T260 705T328
705Q342 706 370 706T427 707T476 708Q623 708 707 646T791 457ZM293 18Q349 18 395 47T476 125T536 237T572 365T585 493Q585 588 555 639T458 690Q436 690 426 684T410 660T394 604L263 104Q254 70 252 52T258 26T293 18Z" />
<glyph unicode="E" horiz-adv-x="637" d="M242 346L246 366H460L456 346H242ZM349 366Q373 366 395 375T436 400T469 436T492 478H514Q501 439 495 414T480 356Q475 336 471 321T464 286T454 234H432Q432 251 428 270T412 307T382 335T335 346L349 366ZM618 528Q619
587 605 621T564 670T497 685H494Q461 685 443 680T414 657T394 602L262 106Q253 70 254 52T270 29T319 23H332Q380 23 417 40T486 95T551 200H573Q568 187 563 168T552 128Q547 109 539 74T526 0Q475 2 413 2T300 3Q273 3 232 3T143 3T45 2T-48 0L-44 20Q-10 22
9 28T39 52T59 106L191 602Q201 639 199 656T182 680T132 688L137 708Q180 707 229 707T326 706T416 705T484 705Q530 705 587 705T691 708Q678 673 670 649T653 590Q649 572 646 556T640 528H618Z" />
<glyph unicode="F" horiz-adv-x="603" d="M252 346L256 366H470L466 346H252ZM608 498Q614 569 600 610T556 668T487 685H484Q455 685 439 680T413 657T394 602L262 106Q253 70 256 52T279 28T341 20L337 0Q303 2 249 2T138 3Q81 3 32 3T-48 0L-44 20Q-10 22 9
28T39 52T59 106L191 602Q201 639 199 656T182 680T132 688L137 708Q180 707 229 707T326 706T416 705T484 705Q530 705 587 705T691 708Q678 673 670 649T653 590Q646 563 640 540T630 498H608ZM359 366Q382 366 403 374T442 396T475 432T502 478H524Q511 439
505 414T490 356Q483 325 476 290T459 204H437Q437 239 431 265T413 309T384 337T345 346L359 366Z" />
<glyph unicode="G" horiz-adv-x="761" d="M356 6Q369 6 383 9T408 20Q423 31 430 48T446 100L469 188Q480 229 478 249T456 276T394 284L399 304Q422 303 455 303T523 302T589 301Q640 301 683 302T754 304L749 284Q727 283 715 277T694 253T675 198L622 0H602Q603
32 593 44T563 57Q535 57 505 42T448 15Q411 -2 381 -8T320 -14Q185 -14 108 46T30 215Q30 283 53 354T121 491T228 609T369 691T538 722Q603 722 638 703T702 657Q717 642 730 652T759 708H781Q766 669 750 614T717 478H695Q697 498 698 516T700 553Q700 574 698
591T686 626Q667 664 629 684T532 704Q474 704 427 669T343 575T282 447T246 308T233 182Q233 92 264 49T356 6Z" />
<glyph unicode="H" horiz-adv-x="846" d="M257 346L264 366H617L609 346H257ZM615 602Q625 639 624 656T606 680T556 688L561 708Q591 707 639 706T737 705Q794 705 844 706T926 708L921 688Q887 687 868 681T839 657T818 602L686 106Q677 70 678 52T695 28T745
20L741 0Q711 2 661 2T553 3Q504 3 456 3T376 0L380 20Q414 22 433 28T463 52T483 106L615 602ZM262 106Q253 70 254 52T271 28T321 20L317 0Q286 2 238 2T140 3Q83 3 34 3T-47 0L-42 20Q-9 22 9 28T39 52T59 106L191 602Q201 639 199 656T182 680T132 688L137
708Q166 707 216 706T324 705Q374 705 420 706T502 708L497 688Q463 687 444 681T415 657T394 602L262 106Z" />
<glyph unicode="I" horiz-adv-x="422" d="M262 106Q253 70 254 52T271 28T321 20L317 0Q285 2 234 2T130 3Q76 3 29 3T-47 0L-42 20Q-9 22 9 28T39 52T59 106L191 602Q201 639 199 656T182 680T132 688L137 708Q165 707 212 706T314 705Q367 705 416 706T502 708L497
688Q463 687 444 681T415 657T394 602L262 106Z" />
<glyph unicode="J" horiz-adv-x="715" d="M695 366L692 346H261L264 366H695ZM414 543Q385 543 359 550T308 566T262 582T220 589Q197 589 180 577T163 538Q163 505 194 484T301 458Q301 458 300 449T299 440Q234 444 185 463T109 516T82 599Q82 661 121 700T241
739Q284 739 316 729T376 705T432 677T494 652T571 642Q604 642 651 650T735 677Q756 709 776 726T811 730Q823 720 810 703T744 666Q681 609 645 516T579 307L517 65Q500 -3 461 -61T353 -153T180 -188Q135 -188 98 -180T38 -152T15 -99Q15 -61 41 -37T119 -12Q161
-12 190 -30T220 -85Q220 -113 204 -134T155 -169Q163 -170 168 -170T178 -171Q201 -171 217 -160T247 -126T272 -67T299 20L368 262Q390 338 422 394T496 494T591 575T705 650Q657 637 622 619T557 583T493 555T414 543Z" />
<glyph unicode="K" horiz-adv-x="783" d="M262 106Q253 70 254 52T271 28T321 20L317 0Q286 2 238 2T140 3Q83 3 34 3T-47 0L-42 20Q-9 22 9 28T39 52T59 106L191 602Q201 639 199 656T182 680T132 688L137 708Q166 707 216 706T324 705Q374 705 420 706T502 708L497
688Q463 687 444 681T415 657T394 602L262 106ZM646 71Q661 71 671 84T689 119L706 170H726L700 93Q681 37 642 12T558 -14Q483 -14 449 23T424 119L452 277Q457 302 457 319T449 347T427 365L429 375Q501 374 546 362T613 328T641 273T640 198L624 98Q622 86 629
79T646 71ZM441 360Q388 346 369 348T353 369Q357 386 374 389T441 378V360ZM639 677Q622 656 611 625T590 559T569 490T540 428T496 384T428 368L430 378Q475 383 501 408T542 470T567 548T589 627T624 689Q641 709 662 715T703 722Q754 722 787 692T821 610Q821
581 808 554T770 508T708 490Q676 490 650 510T623 573Q623 612 650 647T726 700Q722 702 716 703T700 705Q678 705 664 698T639 677Z" />
<glyph unicode="L" horiz-adv-x="617" d="M580 210Q574 194 568 173T556 128Q551 109 543 74T530 0Q479 2 417 2T304 3Q277 3 236 3T145 3T46 2T-48 0L-44 20Q-10 22 9 28T39 52T59 106L191 602Q201 639 199 656T182 680T132 688L137 708Q166 707 217 706T326
705Q376 705 421 706T501 708L496 688Q462 687 443 681T414 657T393 602L261 106Q252 70 253 52T269 29T318 23H336Q370 23 410 41T490 100T558 210H580Z" />
<glyph unicode="M" horiz-adv-x="949" d="M746 705H844Q897 705 944 706T1029 708L1024 688Q990 687 971 681T942 657T921 602L789 106Q780 70 781 52T799 28T848 20L844 0Q807 2 760 2T660 3Q606 3 558 3T480 0L484 20Q519 22 537 28T567 52T587 106L732 645L317
-5H295L206 579L90 137Q83 109 83 83T103 39T171 20L167 0Q155 1 134 1T89 2T48 3Q22 3 -4 3T-47 0L-43 20Q-8 22 13 39T48 82T68 137L192 602Q202 639 200 656T183 680T133 688L138 708Q166 707 211 706T307 705Q332 705 356 706T399 708L457 252L746 705Z" />
<glyph unicode="N" horiz-adv-x="861" d="M543 -5L275 483Q275 483 277 501T281 542T285 584T287 602Q295 639 293 656T273 680T216 688L221 708Q237 707 260 706T310 705Q357 705 391 708L615 272Q615 272 612 252T602 201T590 134T578 67T569 15T565 -5H543ZM851
737Q826 737 804 721T766 682Q720 614 672 443T565 -5L551 23Q566 90 583 167T619 323T659 472T702 599T748 690Q767 717 793 735T856 754Q909 754 941 723T973 647Q973 599 941 571T861 542Q821 542 797 561T772 616Q772 661 802 691T876 729Q872 733 866 735T851
737ZM37 -57Q65 -57 86 -42T123 -1Q152 45 181 143T241 380T303 685L320 664Q304 582 287 498T251 333T214 183T176 64T139 -11Q121 -35 97 -54T32 -74Q-21 -74 -53 -43T-85 33Q-85 81 -52 109T27 138Q68 138 92 119T116 64Q116 19 86 -11T12 -49Q16 -53 22 -55T37
-57Z" />
<glyph unicode="O" horiz-adv-x="809" d="M502 704Q463 704 426 677T357 601T301 490T264 356T250 213Q250 115 275 60T338 4Q377 4 414 31T483 107T539 218T576 352T590 495Q590 593 565 648T502 704ZM34 226Q34 292 56 362T119 496T218 611T351 692T511 722Q649
722 728 660T807 481Q807 415 785 346T722 212T621 97T489 16T329 -14Q191 -14 113 48T34 226Z" />
<glyph unicode="P" horiz-adv-x="679" d="M248 284L253 304H298Q359 304 400 331T467 400T503 491T514 583Q514 633 496 660T437 688Q423 688 417 681T406 656T393 602L261 106Q254 78 255 60T271 32T320 20L316 0Q282 2 237 2T142 3Q85 3 34 3T-48 0L-44 20Q-10
22 9 28T39 52T59 106L191 602Q197 632 197 650T184 677T132 688L137 708Q166 707 217 706T320 705Q356 705 392 706T466 707Q598 707 661 670T725 556Q725 478 670 417T517 320T288 284H248Z" />
<glyph unicode="Q" horiz-adv-x="865" d="M318 243Q250 243 196 263T109 324T77 423Q77 487 114 541T215 636T360 699T531 722Q625 722 699 697T815 627T858 522Q858 471 827 414T743 298T622 184T479 81T329 -4T187 -61T70 -82Q24 -82 -5 -62T-34 3Q-34 40 -14
68T40 114T118 131Q171 131 222 109T325 53T428 -13T532 -68T636 -91Q675 -91 698 -79T735 -50T754 -18Q737 -34 715 -42T669 -51Q629 -51 601 -28T572 38Q572 82 603 110T683 138Q727 138 757 113T787 37Q787 -3 767 -43T709 -115T616 -168T493 -188Q431 -188
382 -173T294 -132T222 -80T160 -27T101 13T39 29Q14 29 2 19T-11 -9Q-11 -34 11 -49T76 -65Q110 -65 157 -52T254 -18T347 25Q400 52 445 87T528 167T590 262T630 372T644 496Q644 596 609 650T507 704Q457 704 417 676T348 602T304 499T289 387Q289 355 296 330T324
290T384 276Q423 276 456 290T513 328T550 382Q555 395 558 408T562 435Q551 395 521 380T464 365Q424 365 400 391T376 458Q376 507 409 539T488 571Q534 571 559 539T585 452Q585 389 551 342T457 269T318 243Z" />
<glyph unicode="R" horiz-adv-x="742" d="M311 356Q323 355 335 354T358 352T382 350Q433 347 478 341T558 321T608 280T617 209L600 105Q595 72 603 58T630 43Q651 43 666 59T692 107L697 121H720L716 108Q697 45 655 16T541 -14Q458 -14 424 21T399 116L418
230Q424 264 418 289T387 328T309 342L311 356ZM291 343L296 359H321Q355 359 390 372T456 414T505 486T524 590Q524 641 506 664T454 688Q434 688 422 678T402 636L262 106Q254 76 253 58T266 31T320 20L316 0Q282 2 237 2T138 3Q85 3 34 3T-48 0L-44 20Q-10 22
9 28T39 52T59 106L190 602Q198 632 198 650T185 677T132 688L137 708Q157 707 187 707T249 706T307 705Q360 705 394 706T460 707Q596 707 660 676T725 569Q725 499 676 449T538 372T331 345L291 343Z" />
<glyph unicode="S" horiz-adv-x="609" d="M649 715Q639 689 622 640T590 511H570Q573 525 574 540T576 566Q576 607 559 635T509 679T432 695Q389 695 357 673T324 598Q324 564 340 532T381 467T435 403T489 337T531 266T547 188Q547 133 518 95T444 32T349 -3T256
-14Q204 -14 171 -9T114 6T62 32Q52 38 43 42T28 47Q15 47 7 36T-15 -7H-35Q-26 15 -16 44T6 118T33 233H53Q48 218 46 196T44 155Q47 82 90 46T207 9Q277 9 300 35T324 101Q324 143 310 179T272 248T224 312T175 376T138 443T123 519Q123 572 147 610T212 673T298
710T386 722Q457 722 499 705T563 676Q571 672 581 667T596 662Q610 662 629 715H649Z" />
<glyph unicode="T" horiz-adv-x="695" d="M790 886Q835 886 861 860T888 800Q888 763 867 736T804 691Q771 678 728 671T631 664Q598 664 555 667T465 674T372 681T290 684Q254 684 225 680T176 667Q214 662 239 637T265 570Q265 527 237 499T168 470Q125 470
102 499T78 567Q78 594 93 625T151 678Q175 690 200 695T248 701T285 702Q348 702 411 698T533 689T641 684Q676 684 699 687T742 694L739 685Q721 699 706 725T691 786Q691 832 719 859T790 886ZM406 687Q406 687 426 686T475 682T534 678T584 675T604 673L457
116Q448 81 451 61T473 32T532 20L528 0Q493 2 437 2T319 3Q261 3 208 3T123 0L127 20Q169 22 193 30T231 59T254 116L406 687Z" />
<glyph unicode="U" horiz-adv-x="702" d="M651 512Q669 579 672 614T659 666T595 688L601 708Q621 707 652 706T712 705Q735 705 757 706T796 708L790 688Q758 682 739 667T707 621T678 532L616 291Q580 153 518 79Q482 37 429 12T313 -14Q222 -14 168 13T91 81Q71
119 71 168T89 288L172 602Q182 639 180 656T163 680T113 688L119 708Q148 707 199 706T308 705Q358 705 403 706T483 708L477 688Q443 687 424 681T395 657T374 602L286 271Q268 202 263 155T265 78T290 35T332 21Q407 21 457 54T539 147T590 280L651 512Z" />
<glyph unicode="V" horiz-adv-x="680" d="M652 577Q678 617 675 640T647 674T584 688L589 708Q599 707 625 707T682 706T731 705Q752 705 771 706T806 708L801 688Q777 681 758 670T717 635T669 569L296 -5Q277 -3 259 -3T221 -5L142 624Q138 660 121 673T90 688L95
708Q124 707 170 706T263 705Q317 705 362 706T437 708L432 688Q400 687 381 680T356 656T352 604L400 163L355 121L652 577Z" />
<glyph unicode="W" horiz-adv-x="1035" d="M609 514L292 -5H217L138 624Q134 660 117 673T86 688L91 708Q120 707 166 706T259 705Q304 705 341 706T403 708L398 688Q368 686 357 671T348 604L394 179L350 131L604 541L609 514ZM1001 577Q1025 619 1022 642T996
675T933 688L938 708Q948 707 974 707T1031 706T1080 705Q1101 705 1120 706T1155 708L1150 688Q1126 681 1106 670T1064 636T1018 569L691 -5H616L537 624Q533 660 520 673T495 688L500 708Q527 707 571 706T658 705Q712 705 757 706T832 708L827 688Q779 686
761 671T747 604L793 179L747 134L1001 577Z" />
<glyph unicode="X" horiz-adv-x="769" d="M540 105Q543 86 553 77T582 67Q602 67 616 79T641 119L658 170H678L652 93Q630 34 593 10T502 -14Q442 -14 407 4T355 57T331 142L273 608Q270 630 261 639T233 648Q214 648 199 634T172 589L155 538H135L161 615Q183
674 224 698T324 722Q377 722 409 706T460 655T484 566L540 105ZM729 705Q713 705 697 699T663 680Q635 656 597 602T519 467T442 278L453 354Q475 419 507 484T575 602T643 686Q688 722 734 722Q784 722 813 689T842 606Q842 553 810 522T733 490Q696 490 674
512T651 574Q651 619 680 653T755 697Q751 701 745 703T729 705ZM68 3Q86 3 102 10T136 28Q166 50 208 99T294 223T377 396L362 320Q339 262 305 204T232 97T157 19Q112 -14 63 -14Q14 -14 -15 19T-45 102Q-45 155 -13 186T64 218Q102 218 124 196T146 134Q146
89 117 56T42 11Q46 7 52 5T68 3Z" />
<glyph unicode="Y" horiz-adv-x="776" d="M422 106Q413 70 419 52T446 28T501 20L496 0Q475 1 441 1T367 2T292 3Q238 3 189 3T111 0L116 20Q150 22 169 28T199 52T219 106L288 380L373 317L466 336L500 416L422 106ZM732 705Q716 705 702 700T668 681Q643 663
606 609T530 469T463 270L275 265Q271 312 264 363T247 462T223 550T193 613T157 636Q138 636 128 621T112 589L95 538Q95 538 84 538T73 538L94 602Q117 671 164 696T263 722Q340 722 380 682T438 562T470 369Q501 464 539 538T618 662Q641 689 670 705T737 722Q790
722 822 691T854 615Q854 567 822 539T742 510Q702 510 678 529T653 584Q653 629 683 659T757 697Q753 701 747 703T732 705Z" />
<glyph unicode="Z" horiz-adv-x="662" d="M164 346L171 366H524L516 346H164ZM452 216Q452 216 454 225T456 235Q492 230 525 217T580 180T602 119Q602 61 559 24T441 -14Q394 -14 358 -3T290 24T223 51T142 63Q121 63 103 59T64 48Q42 16 16 -1T-24 -5Q-36 6
-22 28T45 70L625 640Q574 588 518 557T402 526Q363 526 334 531T281 544T238 556T199 562Q186 562 178 557T170 539Q170 525 186 513T243 492Q243 492 241 483T238 473Q203 479 169 492T114 529T92 589Q92 647 135 684T253 722Q300 722 336 711T404 684T471 657T552
645Q573 645 591 649T630 660Q653 692 678 709T718 713Q730 703 716 681T649 638L69 68Q120 120 177 151T293 182Q332 182 361 177T414 164T457 152T496 146Q509 146 517 151T525 169Q525 183 509 195T452 216Z" />
<glyph unicode="[" horiz-adv-x="404" d="M-21 -181L216 772H486L482 753H401L172 -162H253L249 -181H-21Z" />
<glyph unicode="\" horiz-adv-x="490" d="M162 722L390 -14H357L131 722H162Z" />
<glyph unicode="]" horiz-adv-x="405" d="M426 772L189 -181H-81L-77 -162H4L233 753H152L156 772H426Z" />
<glyph unicode="^" horiz-adv-x="523" d="M250 362Q213 344 162 329T60 302L56 316Q136 351 204 408T314 528H332Q342 466 379 409T482 317L476 302Q418 309 360 324T250 362Z" />
<glyph unicode="_" horiz-adv-x="744" d="M-11 -63H504L462 -202H-53L-11 -63Z" />
<glyph unicode="`" horiz-adv-x="326" d="M350 599Q310 645 280 671T230 714T196 754Q182 777 186 803T213 844Q239 861 267 851T309 821Q324 799 328 772T337 706T362 606L350 599Z" />
<glyph unicode="a" d="M204 54Q214 54 225 62T248 89T274 144T304 234L278 125Q262 72 238 42T183 -1T117 -14Q54 -14 24 18T-7 111Q-7 169 12 229T65 343T140 440T227 508T314 533Q346 533 363 513T376 442L365 436Q370 461 365 472T348 484Q331 484 310 463T266
404T224 318T193 215T181 107Q181 79 186 67T204 54ZM389 518Q444 519 486 522T570 533L435 85Q430 69 430 60T435 47T447 43Q456 43 470 53T500 106L521 162H540L515 89Q501 47 478 25T427 -5T372 -14Q311 -14 285 21Q270 42 269 76T281 158L389 518Z" />
<glyph unicode="b" horiz-adv-x="575" d="M342 466Q326 466 309 448T274 398T242 325T216 238L235 336Q262 405 288 448T346 512T415 533Q485 533 518 491T552 370Q552 323 538 271T497 168T431 76T342 11T229 -14Q201 -14 179 -6T143 13L150 26Q158 23 166 21T184
19Q211 19 237 43T287 109T328 202T356 306T366 409Q366 444 360 455T342 466ZM153 7Q114 18 69 9T-17 -16L-32 -9Q-25 5 -20 19T-10 50L174 667Q184 701 172 717T111 733L118 754Q200 755 263 765T386 795L153 7Z" />
<glyph unicode="c" horiz-adv-x="484" d="M382 513Q345 513 310 482T248 398T205 281T189 150Q189 96 211 72T269 48Q298 48 328 65T389 128L409 120Q388 87 357 56T282 6T180 -14Q104 -14 53 24T2 144Q2 196 18 250T66 355T143 446T245 509T369 533Q431 533 465
502T499 429Q499 397 483 367T441 318T382 298Q356 298 335 316T314 368Q314 417 345 453T416 501Q409 507 401 510T382 513Z" />
<glyph unicode="d" horiz-adv-x="603" d="M460 85Q451 60 457 52T472 43Q481 43 495 53T525 106L546 162H565L540 89Q526 47 503 25T452 -5T397 -14Q333 -14 307 24Q293 45 293 78T306 158L441 667Q451 701 439 717T378 733L385 754Q467 755 532 765T656 795L460
85ZM210 48Q222 48 239 65T278 120T321 222T364 376L349 268Q320 176 292 113T225 18T128 -14Q94 -14 65 1T17 48T-1 132Q-1 176 13 229T54 336T123 434T217 506T338 533Q377 533 389 521T405 488L397 468Q393 488 387 499T361 510Q343 510 320 489T274 428T230
338T198 228T186 105Q186 77 191 63T210 48Z" />
<glyph unicode="e" horiz-adv-x="496" d="M162 210Q194 225 225 246T282 292Q322 331 347 381T373 489Q373 503 369 508T357 514Q337 514 314 492T267 432T226 347T196 251T184 155Q184 97 207 78T267 58Q287 58 327 73T407 128L423 120Q401 87 365 56T280 6T170
-14Q123 -14 84 2T21 49T-3 127Q-3 186 15 244T68 354T149 446T255 510T379 533Q432 533 467 512T503 445Q503 407 483 374T428 313T349 263T257 225T161 200L162 210Z" />
<glyph unicode="f" horiz-adv-x="355" d="M47 499L53 519H408L402 499H47ZM440 762Q426 762 414 759T391 746Q382 738 374 725T358 693T343 647L123 -174Q69 -175 27 -178T-58 -188L128 504Q151 592 182 649T257 738Q289 761 326 771T408 782Q482 782 523 752T565
670Q565 647 552 624T514 585T457 570Q420 570 399 587T377 638Q377 676 400 708T466 756Q459 759 453 760T440 762Z" />
<glyph unicode="g" horiz-adv-x="487" d="M228 227L288 235Q246 220 219 208T177 185T163 165Q163 157 172 152T198 140L289 106Q316 96 342 81T385 43T403 -16Q403 -61 374 -93T298 -147T196 -178T90 -188Q40 -188 -5 -179T-78 -152T-107 -111Q-107 -90 -85 -76T-30
-53T39 -42T103 -41L104 -56Q72 -74 59 -91T45 -126Q45 -147 62 -159T111 -171Q135 -171 162 -165T212 -146T250 -117T265 -80Q265 -59 249 -51T207 -35L71 8Q46 16 27 33T7 77Q7 109 37 133T117 180T228 227ZM266 514Q256 514 246 503T226 470T209 422T198 361T194
292Q194 259 198 247T213 235Q228 235 241 253T265 303T281 375T287 458Q287 479 284 496T266 514ZM292 532Q362 532 409 506T456 418Q456 370 424 324T332 247T191 217Q121 217 74 244T27 331Q27 367 45 402T97 467T181 514T292 532ZM376 479L355 486Q371 528
404 553T478 579Q513 579 530 560T547 513Q547 484 532 468T498 452Q482 452 468 465T449 504T461 570L465 563Q430 550 410 531T376 479Z" />
<glyph unicode="h" horiz-adv-x="592" d="M153 0H-24L174 667Q184 701 172 717T111 733L118 754Q200 755 263 765T386 795L153 0ZM176 143Q217 265 251 341T318 460T385 517T460 533Q510 533 533 513T557 459T545 382L446 85Q436 57 443 50T458 43Q467 43 481
53T511 106L532 162H551L526 89Q512 47 489 25T438 -5T383 -14Q330 -14 305 9T279 72T292 158L378 417Q384 435 385 447T385 465T376 471Q360 471 338 444T292 370T242 263T194 136T154 3L176 143Z" />
<glyph unicode="i" horiz-adv-x="336" d="M169 676Q169 730 204 756T291 782Q335 782 357 765T380 714Q380 667 345 639T257 610Q214 610 192 627T169 676ZM127 434Q141 476 118 476Q103 476 90 463T63 413L40 352H21L49 430Q63 468 84 490T135 523T198 533Q236
533 259 520T292 487T302 442T294 393L190 85Q182 60 187 52T202 43Q211 43 225 53T255 106L276 162H295L270 89Q255 47 232 25T182 -5T127 -14Q83 -14 56 4T22 61T35 158L127 434Z" />
<glyph unicode="j" horiz-adv-x="318" d="M-139 -188L-134 -168Q-94 -168 -60 -140T-9 -42L124 434Q130 457 128 466T114 476Q99 476 86 462T60 413L37 352H18L46 430Q67 488 109 510T197 533Q248 533 270 512T295 458T288 393L202 80Q188 21 171 -19T132 -87T77
-138Q46 -160 -5 -174T-139 -188ZM162 676Q162 730 197 756T284 782Q328 782 350 765T373 714Q373 667 338 639T250 610Q207 610 185 627T162 676Z" />
<glyph unicode="k" horiz-adv-x="577" d="M153 0H-24L174 667Q184 701 172 717T111 733L118 754Q200 755 263 765T386 795L153 0ZM432 85Q427 60 431 52T444 43Q453 43 467 53T497 106L518 162H537L512 89Q497 47 471 25T413 -5T352 -14Q291 -14 269 20T260 115L277
186Q291 237 276 258T211 286V290Q259 293 305 290T386 271T438 225T444 143L432 85ZM451 514Q437 514 426 510T405 498Q388 484 378 458T358 403T333 347T292 303T223 287L213 286L215 297Q257 300 281 317T319 360T342 414T361 468T390 510Q405 523 423 528T454
533Q512 533 540 499T569 419Q569 387 556 364T519 330T468 318Q429 318 408 338T387 387Q387 428 414 457T476 501Q472 507 465 510T451 514Z" />
<glyph unicode="l" horiz-adv-x="316" d="M169 85Q162 61 169 52T185 43Q190 43 205 52T236 106L257 162H276L251 89Q236 46 212 24T160 -6T109 -14Q77 -14 54 -3T17 29T3 83T15 158L168 667Q178 701 166 717T105 733L112 754Q194 755 257 765T380 795L169 85Z" />
<glyph unicode="m" horiz-adv-x="887" d="M180 0H3L125 434Q130 450 130 459T126 472T114 476Q100 476 87 462T61 413L38 352H19L47 430Q61 468 83 490T133 523T191 533Q228 533 249 521T279 489T289 443T282 393L180 0ZM394 417Q398 431 400 441T402 456T392
461Q373 461 352 438T308 373T262 270T214 135L201 143Q241 284 280 370T369 494T486 533Q519 533 538 523T566 493T574 445T562 382L452 0H274L394 417ZM672 417Q680 440 680 450T671 461Q658 461 640 446T598 394T548 294T491 136L480 141Q513 262 545 338T612
457T684 516T763 533Q807 533 829 515T853 463T839 382L740 85Q730 57 737 50T752 43Q761 43 775 53T805 106L826 162H845L820 89Q806 47 783 25T732 -5T677 -14Q644 -14 621 -4T584 28Q571 49 571 81T586 158L672 417Z" />
<glyph unicode="n" horiz-adv-x="619" d="M180 0H3L125 434Q130 450 131 459T129 472T116 476Q101 476 88 463T61 413L38 352H19L47 430Q66 483 99 508T184 533Q223 533 246 521T279 487T289 442T283 393L180 0ZM203 143Q244 265 278 341T345 460T412 517T487
533Q537 533 560 513T584 459T572 382L473 85Q463 57 470 50T485 43Q494 43 508 53T538 106L559 162H578L553 89Q539 47 516 25T465 -5T410 -14Q379 -14 356 -5T320 22Q305 43 304 74T319 158L405 417Q411 435 412 447T412 465T403 471Q387 471 365 444T319 370T269
263T221 136T181 3L203 143Z" />
<glyph unicode="o" horiz-adv-x="557" d="M349 513Q332 513 309 485T262 408T218 301T185 180T172 62Q172 31 176 19T191 6Q207 6 229 33T275 106T319 210T353 331T366 455Q366 493 361 503T349 513ZM6 156Q6 203 19 255T59 356T127 446T225 509T354 533Q441 533
486 489T532 363Q532 316 519 264T479 163T411 73T313 10T184 -14Q97 -14 52 30T6 156Z" />
<glyph unicode="p" horiz-adv-x="605" d="M370 466Q354 466 337 448T302 398T270 325T244 238L263 336Q287 405 314 448T373 512T443 533Q513 533 546 491T580 370Q580 323 567 271T529 168T467 76T383 11T277 -14Q243 -14 215 -6T171 13L178 26Q186 23 194 21T212
19Q239 19 265 41T315 100T356 185T384 284T394 385Q394 438 388 452T370 466ZM187 652Q240 657 285 666T374 690L161 -67Q145 -125 164 -142T236 -160L230 -181Q204 -180 157 -179T56 -177Q10 -177 -36 -178T-105 -181L-99 -160Q-63 -160 -47 -147T-21 -98L187
652ZM3 346Q38 385 68 424T128 517T187 652L190 636Q170 566 143 513T84 417T14 333L3 346Z" />
<glyph unicode="q" horiz-adv-x="581" d="M417 -86Q407 -124 421 -140T478 -160L472 -181Q447 -180 400 -179T303 -177Q254 -177 206 -178T132 -181L138 -160Q188 -158 209 -140T240 -85L402 510Q441 499 486 508T572 533L587 526Q580 513 575 498T565 467L417
-86ZM212 63Q228 63 245 80T280 128T312 197T338 281L319 183Q293 114 266 71T208 7T139 -14Q69 -14 36 28T2 149Q2 196 17 248T62 351T131 443T221 508T325 533Q353 533 375 525T411 506L404 493Q396 496 389 498T370 500Q343 500 317 474T267 404T226 309T198
205T188 110Q188 82 194 73T212 63Z" />
<glyph unicode="r" horiz-adv-x="499" d="M180 0H3L125 434Q131 457 129 466T116 476Q101 476 88 463T61 413L38 352H19L47 430Q61 468 82 490T133 523T196 533Q230 533 250 521T279 487T288 442T283 393L180 0ZM435 513Q416 513 395 507T350 477T300 398T243
248T180 3L201 143Q231 260 256 335T306 454T361 515T431 533Q478 533 503 505T528 436Q528 403 514 375T474 329T415 311Q378 311 359 330T340 386Q340 416 355 442T395 486T449 510Q446 511 443 512T435 513Z" />
<glyph unicode="s" horiz-adv-x="446" d="M84 14Q92 10 100 9T119 7Q150 7 170 27T191 83Q191 117 175 154T133 232Q109 271 91 305T73 382Q73 425 95 459T161 513T272 533Q314 533 353 523T418 489T444 418Q444 398 436 377T413 343T373 329Q343 329 326 352T309
413Q309 445 319 470T341 507Q333 511 316 511Q281 511 264 491T245 433Q245 411 253 389T276 344T304 297Q337 241 350 206T364 136Q364 95 342 61T275 7T164 -14Q117 -14 75 -3T6 37T-21 114Q-21 151 -3 177T47 203Q76 203 94 179T112 115Q112 83 102 56T84 14Z"
/>
<glyph unicode="t" horiz-adv-x="365" d="M420 519L417 499H46L51 519H420ZM193 85Q187 64 192 54T211 43Q231 43 251 65T283 119L299 162H318L299 107Q280 50 239 18T140 -14Q90 -14 63 9T31 72T39 158L185 666Q240 667 283 670T367 680L193 85Z" />
<glyph unicode="u" horiz-adv-x="617" d="M391 354Q352 237 318 165T252 54T185 1T110 -14Q70 -14 46 3T18 53T29 137L126 434Q136 463 129 469T114 476Q105 476 91 466T61 413L40 357H21L46 430Q61 472 84 494T135 524T189 533Q234 533 261 515T294 458T280 361L194
102Q176 48 196 48Q212 48 234 75T281 149T331 256T379 383T419 516L391 354ZM474 85Q467 62 468 53T483 43Q498 43 511 56T538 106L561 167H580L552 89Q539 52 517 29T467 -4T409 -14Q374 -14 353 -4T320 25Q308 45 308 71T316 126L419 519Q471 520 516 523T600
533L474 85Z" />
<glyph unicode="v" horiz-adv-x="519" d="M463 296Q414 319 381 359T348 451Q348 489 368 511T426 533Q466 533 484 507T502 435Q502 380 490 318T452 197T387 91T294 15T171 -14Q109 -14 75 4T26 51T12 110Q12 175 50 238T154 365T304 490Q273 489 252 475T213
442T180 411T142 397Q126 397 115 404T89 412Q76 412 69 403T56 374L49 353H30L52 426Q70 490 95 512T146 534Q165 534 179 527T210 513T256 505Q266 505 283 507T321 520L331 539L352 529Q319 475 292 417T244 301T213 193T202 107Q202 73 212 56T248 39Q279 39
307 53T359 92T403 149T438 219T463 296Z" />
<glyph unicode="w" horiz-adv-x="676" d="M299 45Q271 19 232 3T136 -14Q91 -14 60 3T12 49T-5 114Q-5 160 21 203T94 290T208 385T353 495L350 490Q313 490 286 476T239 444T199 411T157 397Q138 397 127 404T102 412Q89 412 83 403T69 374L62 353H43L65 426Q84
489 109 508T161 528Q181 528 197 523T235 511T290 505Q301 505 320 507T364 520L374 539L395 529Q349 475 311 417T244 302T201 194T185 102Q185 73 195 56T232 39Q247 39 262 44T290 58L299 45ZM483 69Q508 69 528 82T563 117T589 170T605 234T612 306Q578 322
542 343T482 394T457 468Q457 489 473 511T526 533Q559 533 580 511T612 454T628 385T633 322Q633 273 624 224T596 133T550 57T488 5T408 -14Q374 -14 341 -2T287 40T266 123Q266 170 283 212T326 288T381 340T436 359Q455 359 463 348T474 322T477 296Q477 231
450 171T369 63L362 80Q404 121 429 177T454 290Q454 311 450 324T438 337Q426 337 415 314T397 255T390 178Q390 146 400 122T432 83T483 69Z" />
<glyph unicode="x" horiz-adv-x="591" d="M396 88Q401 62 409 52T430 42Q443 42 456 57T487 124L500 161H519L494 88Q480 44 455 22T401 -7T346 -14Q294 -14 259 7T217 88L177 431Q173 457 164 463T141 470Q133 470 125 466T107 445T86 395L73 358H54L79 431Q93
475 118 497T173 526T232 533Q287 533 319 510T359 417L396 88ZM421 456Q400 428 384 394T357 326T337 264Q337 264 327 264T317 265Q319 273 325 295T343 348T371 411T408 472Q435 509 465 521T524 533Q565 533 591 511T617 448Q617 409 592 384T527 359Q496 359
466 380T421 456ZM150 63Q182 106 202 159T234 255Q234 255 244 255T254 254Q247 226 234 189T204 115T163 47Q135 11 105 -1T46 -14Q3 -14 -21 7T-46 66Q-46 110 -19 135T46 160Q86 160 111 134T150 63Z" />
<glyph unicode="y" horiz-adv-x="483" d="M323 75L190 -78L106 433Q102 458 98 467T85 476Q75 476 68 465T45 413L24 357H5L30 430Q51 491 83 512T159 533Q206 533 236 509T277 414L323 75ZM71 -137Q120 -115 171 -76T275 31Q328 97 366 168T425 300Q395 317 372
340T335 392T321 451Q321 489 341 511T399 533Q439 533 457 507T475 436Q475 391 460 337T417 223T354 108T278 4Q236 -47 191 -84T101 -145T10 -180Q-6 -184 -21 -186T-49 -188Q-89 -188 -110 -171T-132 -122Q-132 -93 -111 -71T-52 -49Q-15 -49 15 -71T71 -137Z"
/>
<glyph unicode="z" horiz-adv-x="476" d="M39 67Q64 76 89 93T137 128T183 158T227 171Q251 171 264 163T287 147T314 139Q328 139 333 148T339 164Q339 185 325 196T295 211L301 226Q360 213 386 186T412 113Q412 78 397 49T353 3T279 -14Q245 -14 219 -5T169
16T121 38T61 47Q34 47 13 38T-30 0H-61L448 461Q418 450 389 430T331 388T277 352T227 337Q204 337 191 345T167 361T142 369Q129 369 123 362T116 344Q116 327 126 318T160 297L154 282Q101 294 72 320T43 390Q43 424 61 455T115 507T204 528Q239 528 264 520T311
500T357 480T413 471Q444 471 464 481T505 518H536L39 67Z" />
<glyph unicode="{" horiz-adv-x="398" d="M251 -188Q163 -189 114 -176T46 -135T30 -63T48 43Q65 110 73 154T81 227Q80 258 69 271T34 286H29L32 304H37Q69 307 91 328T132 402T174 547Q198 644 238 694T340 763T491 782L486 763Q462 763 445 757T415 729T387
664T354 547Q331 457 294 407T200 332T59 295Q125 282 166 265T226 221T245 151T228 43Q213 -18 206 -57T199 -119Q199 -150 213 -159T256 -169L251 -188Z" />
<glyph unicode="|" horiz-adv-x="403" d="M271 858V-195H151V858H271Z" />
<glyph unicode="}" horiz-adv-x="397" d="M148 782Q236 783 285 771T353 730T369 658T351 551Q335 484 327 440T318 367Q319 336 330 323T365 308H370L367 290H362Q331 288 309 266T267 193T225 47Q202 -50 162 -100T60 -169T-92 -188L-87 -169Q-63 -169 -46 -163T-16
-135T12 -70T45 47Q68 138 105 188T200 262T340 299Q274 312 233 329T173 373T154 443T171 551Q186 612 193 651T200 713Q200 744 186 753T143 763L148 782Z" />
<glyph unicode="~" horiz-adv-x="643" d="M388 197Q350 197 321 209T267 236T214 263T153 275Q123 275 97 262T50 217L36 222Q68 308 128 358T261 409Q299 409 328 397T382 370T435 343T496 331Q526 331 552 344T599 389L613 384Q582 299 522 248T388 197Z" />
<glyph unicode="&#xa0;" horiz-adv-x="257" />
<glyph unicode="&#xa1;" horiz-adv-x="328" d="M172 316Q156 255 157 194T165 72T172 -53Q172 -117 138 -152T38 -188Q1 -188 -23 -171T-48 -116Q-48 -76 -24 -29T34 73T102 189T154 319L172 316ZM116 427Q116 474 148 503T228 533Q266 533 286 516T307 465Q307
439 292 415T252 376T194 361Q156 361 136 378T116 427Z" />
<glyph unicode="&#xa2;" horiz-adv-x="507" d="M393 708L154 -181H132L371 708H393ZM386 513Q349 513 314 482T252 398T209 281T193 150Q193 96 215 72T273 48Q302 48 332 65T393 128L413 120Q392 87 361 56T286 6T184 -14Q108 -14 57 24T6 144Q6 196 22 250T70
355T147 446T249 509T373 533Q435 533 469 502T503 429Q503 397 487 367T445 318T386 298Q360 298 339 316T318 368Q318 417 349 453T420 501Q413 507 405 510T386 513Z" />
<glyph unicode="&#xa3;" horiz-adv-x="704" d="M493 317L487 297H52L58 317H493ZM520 417L514 397H79L85 417H520ZM547 721Q526 721 509 715T478 696T453 659T433 603L384 415Q368 354 342 315T282 249T215 198T147 144T88 68Q139 120 196 151T312 182Q364 182
400 173T463 155T515 146Q528 146 536 151T544 169Q544 183 528 195T471 216L475 235Q511 230 544 217T599 180T621 119Q621 81 602 51T546 3T460 -14Q413 -14 377 -3T309 24T242 51T161 63Q140 63 121 61T81 52Q64 17 37 2T-18 -14Q-31 -14 -31 -4Q-31 13 -8 37T68
69Q85 103 102 145T139 258L187 439Q209 523 255 590T373 697T549 736Q607 736 641 705T676 629Q676 572 645 538T567 504Q527 504 503 524T478 585Q478 632 505 666T577 710Q573 715 566 718T547 721Z" />
<glyph unicode="&#xa4;" horiz-adv-x="717" d="M269 300Q269 266 281 243T315 208T362 196Q388 196 409 208T442 243T455 300Q455 334 443 357T409 393T362 405Q337 405 316 393T282 358T269 300ZM75 138L143 206Q133 228 129 251T124 300Q124 325 129 348T143
393L75 461L198 584L265 517Q287 527 311 532T360 537Q385 537 408 532T454 517L522 585L645 462L577 394Q587 372 592 349T597 300Q597 275 592 251T577 205L645 137L522 14L453 83Q431 74 408 69T360 64Q308 64 266 83L198 15L75 138Z" />
<glyph unicode="&#xa5;" horiz-adv-x="825" d="M601 217L596 197H126L131 217H601ZM623 297L618 277H148L153 297H623ZM446 106Q437 70 443 52T470 28T525 20L520 0Q499 1 465 1T391 2T316 3Q262 3 213 3T135 0L140 20Q174 22 193 28T223 52T243 106L312 380L397
317L490 336L524 416L446 106ZM756 705Q740 705 726 700T692 681Q667 663 630 609T554 469T487 270L299 265Q295 312 288 363T271 462T247 550T217 613T181 636Q162 636 152 621T136 589L119 538Q119 538 108 538T97 538L118 602Q141 671 188 696T287 722Q364 722
404 682T462 562T494 369Q525 464 563 538T642 662Q665 689 694 705T761 722Q814 722 846 691T878 615Q878 567 846 539T766 510Q726 510 702 529T677 584Q677 629 707 659T781 697Q777 701 771 703T756 705Z" />
<glyph unicode="&#xa6;" horiz-adv-x="406" d="M153 -195V326H273V-195H153ZM273 858V384H153V858H273Z" />
<glyph unicode="&#xa7;" horiz-adv-x="621" d="M530 749Q528 752 519 755T498 760T469 763Q435 763 406 749T359 707T341 643Q341 617 353 598T390 558T450 507Q492 472 523 444T571 389T588 327Q588 282 568 248T516 187T445 140T368 105L361 115Q379 128 391
139T413 166T427 204Q434 232 426 254T387 306T297 380Q249 418 217 449T170 509T154 570Q154 625 183 665T258 731T359 769T464 782Q485 782 513 779T570 767T616 739T635 691Q635 662 620 637T580 597T522 581Q486 581 468 599T450 644Q450 678 474 706T530 749ZM153
-169Q187 -169 216 -155T263 -113T281 -49Q281 -22 269 -3T232 37T172 87Q131 122 100 150T51 205T34 267Q34 312 54 346T106 407T177 454T254 489L261 479Q244 467 228 451T202 414T192 369Q192 349 204 328T245 280T325 214Q374 176 405 145T452 85T468 24Q468
-31 439 -71T364 -137T263 -175T158 -188Q137 -188 109 -185T52 -173T6 -146T-12 -98Q-12 -69 2 -44T42 -3T100 13Q135 13 153 -3T172 -46Q172 -83 149 -111T92 -155Q95 -157 103 -160T125 -166T153 -169Z" />
<glyph unicode="&#xa8;" horiz-adv-x="514" d="M157 674Q157 726 187 749T256 772Q296 772 313 751T331 694Q331 660 316 639T279 608T231 598Q191 598 174 619T157 674ZM395 674Q395 726 425 749T494 772Q534 772 551 751T569 694Q569 660 554 639T517 608T469
598Q429 598 412 619T395 674Z" />
<glyph unicode="&#xa9;" horiz-adv-x="902" d="M77 384Q77 467 108 539T193 665T320 751T475 782Q558 782 630 751T756 666T842 539T873 384Q873 302 842 230T757 103T630 17T475 -14Q393 -14 321 17T194 102T108 229T77 384ZM117 384Q117 308 145 242T222 126T336
47T475 18Q549 18 614 46T728 125T805 242T833 384Q833 460 805 526T728 642T614 721T475 750Q401 750 336 722T222 643T145 526T117 384ZM556 190Q570 190 589 196T632 222T677 287L694 281Q682 241 656 202T587 137T485 111Q418 111 364 137T277 223T244 384Q244
480 278 540T370 629T501 658Q545 658 589 645T663 603T693 524Q693 483 666 455T597 427Q553 427 529 452T505 517Q505 555 529 581T587 617Q578 623 563 627T530 632Q497 632 475 613T442 543T431 398Q431 316 450 271T498 208T556 190Z" />
<glyph unicode="&#xaa;" horiz-adv-x="584" d="M509 463Q504 446 505 434T523 422Q535 422 545 429T561 453L570 478H589L579 450Q563 404 528 382T443 360Q409 360 385 372T353 414T360 499L421 713Q516 713 591 722L509 463ZM296 421Q310 421 324 438T353 486T379
552T397 627L386 548Q366 470 338 430T278 375T210 360Q157 360 129 385T101 461Q101 509 124 555T185 639T271 699T368 722Q387 722 402 714T413 667L406 651Q407 677 400 687T382 698Q367 698 349 679T313 627T285 555T274 475Q274 447 280 434T296 421Z" />
<glyph unicode="&#xab;" horiz-adv-x="632" d="M402 533Q387 502 365 463T316 385T263 312T215 259Q227 239 238 206T257 134T270 57T275 -14H257Q205 58 147 124T15 249L20 269Q121 328 209 394T384 533H402ZM608 493Q597 466 579 433T540 366T498 304T461 259Q469
242 477 214T490 153T499 86T501 26H483Q436 86 386 143T270 249L275 269Q362 319 439 376T590 493H608Z" />
<glyph unicode="&#xac;" horiz-adv-x="636" d="M80 340L89 370H590L531 165H495L545 340H80Z" />
<glyph unicode="&#xad;" horiz-adv-x="507" />
<glyph unicode="&#xae;" horiz-adv-x="676" d="M394 782Q452 782 502 761T591 701T651 612T673 503Q673 445 652 395T592 306T503 246T394 224Q336 224 286 245T197 305T137 394T115 503Q115 561 136 611T196 700T285 760T394 782ZM330 525Q364 525 378 524T400
522T419 518Q476 514 496 501T522 459L539 388Q541 378 544 375T552 371Q558 371 563 375L569 364Q560 357 546 352T511 347Q476 347 457 358T433 392L420 464Q417 483 411 492T387 506T332 510L330 525ZM394 750Q328 750 274 717T189 627T157 503Q157 436 188
380T274 290T394 256Q460 256 514 289T599 379T631 503Q631 571 600 627T514 716T394 750ZM408 676Q478 676 506 656T534 597Q534 582 522 564T478 531T385 513L325 510Q325 510 325 518T325 526H378Q405 526 420 543T435 594Q435 626 424 643T392 661Q382 661
378 656T374 636V404Q374 381 378 375T397 367V352Q383 352 365 352T326 353Q304 353 283 353T250 352V367Q264 369 268 375T273 404V623Q273 647 269 653T250 661V676Q262 675 282 675T322 675Q350 675 374 675T408 676Z" />
<glyph unicode="&#xaf;" horiz-adv-x="452" d="M515 712L509 687H157L163 712H515Z" />
<glyph unicode="&#xb0;" horiz-adv-x="332" d="M261 820Q310 820 346 788T383 700Q383 644 347 612T261 579Q213 579 177 611T140 700Q140 756 176 788T261 820ZM261 599Q284 599 306 610T344 644T359 700Q359 733 344 755T307 788T261 800Q239 800 217 789T179
755T164 700Q164 667 179 645T216 611T261 599Z" />
<glyph unicode="&#xb1;" horiz-adv-x="606" d="M-33 0L-24 30H477L468 0H-33ZM78 370H311L378 606H414L347 370H579L570 340H338L271 105H235L302 340H69L78 370Z" />
<glyph unicode="&#xb2;" horiz-adv-x="366" d="M307 754Q349 754 376 741T404 698Q404 672 384 649T332 605T267 566T208 530Q225 530 247 526T291 517T329 512Q346 512 356 518T366 538Q366 548 362 556L379 563Q388 550 393 535T399 503Q399 474 377 454T305
433Q271 433 234 441T150 451Q127 452 112 450T72 437L76 455Q90 466 115 483T170 522T225 570T268 621T285 674Q285 696 273 705T239 714Q215 714 191 703T144 668L130 679Q156 708 200 731T307 754Z" />
<glyph unicode="&#xb3;" horiz-adv-x="348" d="M310 754Q354 754 382 741T410 700Q410 679 393 660T348 627T289 602T231 586Q297 585 338 569T380 512Q380 475 347 446T260 396T147 363T34 348V366Q73 369 113 380T186 411T240 458T260 520Q260 547 250 558T225
572Q214 566 206 564T193 562Q187 562 181 565T175 575Q175 585 187 589T219 592Q251 607 271 629T292 677Q292 697 281 706T252 715Q228 715 203 704T149 667L135 679Q151 696 177 713T238 742T310 754Z" />
<glyph unicode="&#xb4;" horiz-adv-x="309" d="M137 609Q171 663 190 703T226 774T265 828Q285 848 317 855T375 837Q398 815 391 788T359 736Q338 715 308 697T238 657T147 599L137 609Z" />
<glyph unicode="&#xb6;" horiz-adv-x="754" d="M409 327Q393 249 386 186T377 85T378 48Q378 48 386 80T409 167T441 285T476 415T507 534T531 621T541 656Q538 656 526 634T497 573T460 484T422 376Q348 376 286 371T186 360T148 351Q148 348 182 342T275 332T409
327ZM360 -13Q245 -13 175 17T74 102T42 229Q42 328 78 415T178 568T328 671T513 709Q569 709 618 708T713 706Q742 706 773 706T833 708L828 689Q779 687 761 671T733 621L588 65Q569 -9 530 -66T423 -155T251 -188Q206 -188 169 -180T109 -152T86 -99Q86 -61
112 -37T190 -12Q232 -12 261 -30T291 -85Q291 -113 275 -134T226 -169Q234 -170 239 -170T249 -171Q277 -171 295 -155T329 -103T360 -13Z" />
<glyph unicode="&#xb7;" horiz-adv-x="310" d="M54 253Q54 300 86 329T166 359Q204 359 224 342T245 291Q245 264 230 241T190 202T132 187Q94 187 74 204T54 253Z" />
<glyph unicode="&#xb8;" horiz-adv-x="371" d="M146 0L96 -67Q110 -62 126 -59T158 -55Q187 -55 208 -65T230 -98Q230 -131 202 -150T129 -179T39 -188Q6 -188 -19 -182T-57 -170L-51 -154Q-43 -156 -27 -160T10 -164Q22 -164 41 -161T76 -149T92 -122Q92 -99
64 -99Q59 -99 50 -100T33 -106L117 0H146Z" />
<glyph unicode="&#xb9;" horiz-adv-x="278" d="M349 753L248 437H129L202 660Q180 653 158 647T104 634L109 653Q167 668 207 684T276 719T330 753H349Z" />
<glyph unicode="&#xba;" horiz-adv-x="545" d="M381 704Q361 704 341 680T304 615T277 529T266 437Q266 379 294 379Q314 379 334 403T371 467T398 554T409 646Q409 704 381 704ZM104 495Q104 527 122 566T175 640T263 699T386 722Q470 722 520 689T571 587Q571
555 553 516T500 442T412 384T289 361Q205 361 155 394T104 495Z" />
<glyph unicode="&#xbb;" horiz-adv-x="631" d="M356 533Q409 461 467 395T599 269L594 249Q493 191 405 125T229 -14H211Q226 18 248 56T297 134T350 206T397 259Q385 279 375 312T356 384T343 463T338 533H356ZM130 493Q177 433 228 376T343 269L338 249Q251
200 175 143T24 26H6Q17 53 35 86T74 152T115 214T151 259Q143 276 136 304T123 365T114 432T112 493H130Z" />
<glyph unicode="&#xbc;" horiz-adv-x="709" d="M720 824L735 811L-98 -55L-113 -42L720 824ZM349 753L248 437H129L202 660Q180 653 158 647T104 634L109 653Q167 668 207 684T276 719T330 753H349ZM495 317L500 296L177 23L212 63H490L468 -8H130L135 10L495
317ZM514 317L397 -85H305L393 218L495 317H514Z" />
<glyph unicode="&#xbd;" horiz-adv-x="631" d="M720 824L735 811L-98 -55L-113 -42L720 824ZM349 753L248 437H129L202 660Q180 653 158 647T104 634L109 653Q167 668 207 684T276 719T330 753H349ZM474 317Q516 317 543 304T571 261Q571 235 551 212T499 168T434
129T375 93Q392 93 414 89T458 80T496 75Q513 75 523 81T533 101Q533 111 529 119L546 126Q555 113 560 98T566 66Q566 37 544 17T472 -4Q438 -4 401 4T317 14Q294 15 279 13T239 0L243 18Q257 29 282 46T337 85T392 133T435 184T452 237Q452 259 440 268T406 277Q382
277 358 266T311 231L297 242Q323 271 367 294T474 317Z" />
<glyph unicode="&#xbe;" horiz-adv-x="779" d="M820 824L835 811L2 -55L-13 -42L820 824ZM310 754Q354 754 382 741T410 700Q410 679 393 660T348 627T289 602T231 586Q297 585 338 569T380 512Q380 475 347 446T260 396T147 363T34 348V366Q73 369 113 380T186
411T240 458T260 520Q260 547 250 558T225 572Q214 566 206 564T193 562Q187 562 181 565T175 575Q175 585 187 589T219 592Q251 607 271 629T292 677Q292 697 281 706T252 715Q228 715 203 704T149 667L135 679Q151 696 177 713T238 742T310 754ZM595 317L600
296L277 23L312 63H590L568 -8H230L235 10L595 317ZM614 317L497 -85H405L493 218L595 317H614Z" />
<glyph unicode="&#xbf;" horiz-adv-x="516" d="M229 -163Q236 -163 247 -162T270 -159T292 -154Q258 -150 234 -129T210 -76Q210 -42 237 -20T301 2Q333 2 358 -16T384 -74Q384 -108 364 -130T311 -165T240 -183T167 -188Q70 -188 12 -156T-46 -67Q-46 -37 -29
-13T21 36T104 95Q146 123 174 145T216 188T230 237Q230 259 217 276T166 294Q150 294 134 291T109 284Q132 283 153 265T174 218Q174 188 150 169T90 149Q60 149 40 164T20 211Q20 243 40 263T91 295T158 312T225 317Q280 317 325 305T396 268T423 209Q423 177
402 149T347 97T281 50Q214 5 181 -24T147 -94Q147 -130 171 -146T229 -163ZM215 427Q215 474 247 503T327 533Q365 533 385 516T406 465Q406 439 391 415T351 376T293 361Q255 361 235 378T215 427Z" />
<glyph unicode="&#xc0;" horiz-adv-x="669" d="M47 131Q20 93 23 70T51 35T115 20L111 0Q59 2 28 2T-31 3Q-52 3 -66 3T-96 0L-92 20Q-72 26 -56 38T-19 74T30 139L438 713Q456 711 476 711T513 713L553 84Q556 48 571 35T602 20L598 0Q569 2 520 2T429 3Q378
3 332 3T259 0L263 20Q311 22 331 37T349 104L326 542L379 600L47 131ZM149 288H441L433 268H131L149 288ZM534 772Q476 790 437 796T372 807T322 823Q297 836 287 860T289 909Q303 937 332 943T383 939Q408 928 425 908T467 857T541 784L534 772Z" />
<glyph unicode="&#xc1;" horiz-adv-x="669" d="M47 131Q20 93 23 70T51 35T115 20L111 0Q59 2 28 2T-31 3Q-52 3 -66 3T-96 0L-92 20Q-72 26 -56 38T-19 74T30 139L438 713Q456 711 476 711T513 713L553 84Q556 48 571 35T602 20L598 0Q569 2 520 2T429 3Q378
3 332 3T259 0L263 20Q311 22 331 37T349 104L326 542L379 600L47 131ZM149 288H441L433 268H131L149 288ZM460 784Q508 826 538 859T592 918T646 958Q663 967 683 969T723 964T754 935Q769 907 755 883T709 842Q683 828 649 820T571 801T467 772L460 784Z" />
<glyph unicode="&#xc2;" horiz-adv-x="669" d="M47 131Q20 93 23 70T51 35T115 20L111 0Q59 2 28 2T-31 3Q-52 3 -66 3T-96 0L-92 20Q-72 26 -56 38T-19 74T30 139L438 713Q456 711 476 711T513 713L553 84Q556 48 571 35T602 20L598 0Q569 2 520 2T429 3Q378
3 332 3T259 0L263 20Q311 22 331 37T349 104L326 542L379 600L47 131ZM149 288H441L433 268H131L149 288ZM477 824Q431 808 374 795T252 770L247 784Q338 813 416 859T542 956H560Q579 898 609 857T699 784L695 770Q645 778 607 786T538 804T477 824Z" />
<glyph unicode="&#xc3;" horiz-adv-x="669" d="M47 131Q20 93 23 70T51 35T115 20L111 0Q59 2 28 2T-31 3Q-52 3 -66 3T-96 0L-92 20Q-72 26 -56 38T-19 74T30 139L438 713Q456 711 476 711T513 713L553 84Q556 48 571 35T602 20L598 0Q569 2 520 2T429 3Q378
3 332 3T259 0L263 20Q311 22 331 37T349 104L326 542L379 600L47 131ZM149 288H441L433 268H131L149 288ZM449 948Q488 948 514 937T560 912T600 886T650 875Q673 875 693 888T732 933L750 928Q718 841 666 803T560 765Q521 765 495 776T449 801T409 827T359 838Q336
838 317 825T277 780L259 785Q291 872 343 910T449 948Z" />
<glyph unicode="&#xc4;" horiz-adv-x="669" d="M47 131Q20 93 23 70T51 35T115 20L111 0Q59 2 28 2T-31 3Q-52 3 -66 3T-96 0L-92 20Q-72 26 -56 38T-19 74T30 139L438 713Q456 711 476 711T513 713L553 84Q556 48 571 35T602 20L598 0Q569 2 520 2T429 3Q378
3 332 3T259 0L263 20Q311 22 331 37T349 104L326 542L379 600L47 131ZM149 288H441L433 268H131L149 288ZM274 838Q274 890 304 913T373 936Q413 936 430 915T448 858Q448 824 433 803T396 772T348 762Q308 762 291 783T274 838ZM532 838Q532 890 562 913T631
936Q671 936 688 915T706 858Q706 824 691 803T654 772T606 762Q566 762 549 783T532 838Z" />
<glyph unicode="&#xc5;" horiz-adv-x="669" d="M47 131Q20 93 23 70T51 35T115 20L111 0Q59 2 28 2T-31 3Q-52 3 -66 3T-96 0L-92 20Q-72 26 -56 38T-19 74T30 139L438 713Q456 711 476 711T513 713L553 84Q556 48 571 35T602 20L598 0Q569 2 520 2T429 3Q378
3 332 3T259 0L263 20Q311 22 331 37T349 104L326 542L379 600L47 131ZM149 288H441L433 268H131L149 288ZM504 945Q549 945 579 921T610 856Q610 825 592 799T543 758T477 742Q434 742 405 766T375 832Q375 864 392 889T438 930T504 945ZM482 763Q508 763 531
775T569 808T584 854Q584 890 557 907T501 924Q461 924 432 896T402 832Q402 798 427 781T482 763Z" />
<glyph unicode="&#xc6;" horiz-adv-x="910" d="M591 773L30 94Q11 72 4 57T10 32T63 20V0Q50 2 26 2T-23 3Q-41 3 -59 3T-90 0V20Q-59 22 -4 84L565 773H591ZM222 346L241 366H733L729 346H222ZM662 366Q692 366 710 382T741 423T765 478H787Q774 439 768 414T753
356Q747 334 742 309T727 234H705Q705 251 708 270T710 305T698 333T658 346L662 366ZM535 106Q526 70 527 52T543 29T592 23H645Q693 23 724 40T779 95T824 200H846Q841 187 836 168T825 128Q820 109 812 74T799 0Q748 2 686 2T573 3Q546 3 505 3T416 3T318 2T225
0L229 20Q263 22 282 28T312 52T332 106L464 602Q474 639 472 656T455 680T405 688L410 708Q453 707 502 707T599 706T689 705T757 705Q803 705 860 705T964 708Q951 673 941 640T926 590Q921 572 918 556T913 528H891Q907 617 889 651T810 685H767Q734 685 716
680T687 657T667 602L535 106Z" />
<glyph unicode="&#xc7;" horiz-adv-x="708" d="M768 708Q753 669 737 614T704 478H682Q691 528 691 568T675 637Q656 670 629 682T565 694Q517 694 473 670T391 601T326 497T283 368T267 223Q267 119 302 72T398 24Q431 24 466 39T528 82Q555 111 574 146T618
240H640Q615 149 602 94T581 0H559Q562 21 562 34Q562 54 554 58T529 51Q503 33 472 18T405 -5T329 -14Q176 -14 107 54T37 242Q37 314 61 383T130 514T238 622T378 695T544 722Q584 722 611 713T658 689T692 657Q705 641 718 654T747 708H768ZM352 7L324 -57Q338
-52 354 -49T386 -45Q420 -45 441 -57T463 -98Q463 -131 436 -150T368 -179T282 -188Q244 -188 213 -182T166 -170L172 -154Q181 -156 206 -160T253 -164Q269 -164 288 -161T321 -149T335 -122Q335 -99 307 -99Q302 -99 293 -100T276 -106L325 7H352Z" />
<glyph unicode="&#xc8;" horiz-adv-x="637" d="M242 346L246 366H460L456 346H242ZM349 366Q373 366 395 375T436 400T469 436T492 478H514Q501 439 495 414T480 356Q475 336 471 321T464 286T454 234H432Q432 251 428 270T412 307T382 335T335 346L349 366ZM618
528Q619 587 605 621T564 670T497 685H494Q461 685 443 680T414 657T394 602L262 106Q253 70 254 52T270 29T319 23H332Q380 23 417 40T486 95T551 200H573Q568 187 563 168T552 128Q547 109 539 74T526 0Q475 2 413 2T300 3Q273 3 232 3T143 3T45 2T-48 0L-44
20Q-10 22 9 28T39 52T59 106L191 602Q201 639 199 656T182 680T132 688L137 708Q180 707 229 707T326 706T416 705T484 705Q530 705 587 705T691 708Q678 673 670 649T653 590Q649 572 646 556T640 528H618ZM490 772Q432 790 393 796T328 807T278 823Q253 836
243 860T245 909Q259 937 288 943T339 939Q364 928 381 908T423 857T497 784L490 772Z" />
<glyph unicode="&#xc9;" horiz-adv-x="637" d="M242 346L246 366H460L456 346H242ZM349 366Q373 366 395 375T436 400T469 436T492 478H514Q501 439 495 414T480 356Q475 336 471 321T464 286T454 234H432Q432 251 428 270T412 307T382 335T335 346L349 366ZM618
528Q619 587 605 621T564 670T497 685H494Q461 685 443 680T414 657T394 602L262 106Q253 70 254 52T270 29T319 23H332Q380 23 417 40T486 95T551 200H573Q568 187 563 168T552 128Q547 109 539 74T526 0Q475 2 413 2T300 3Q273 3 232 3T143 3T45 2T-48 0L-44
20Q-10 22 9 28T39 52T59 106L191 602Q201 639 199 656T182 680T132 688L137 708Q180 707 229 707T326 706T416 705T484 705Q530 705 587 705T691 708Q678 673 670 649T653 590Q649 572 646 556T640 528H618ZM416 784Q464 826 494 859T548 918T602 958Q619 967
639 969T679 964T710 935Q725 907 711 883T665 842Q639 828 605 820T527 801T423 772L416 784Z" />
<glyph unicode="&#xca;" horiz-adv-x="637" d="M242 346L246 366H460L456 346H242ZM349 366Q373 366 395 375T436 400T469 436T492 478H514Q501 439 495 414T480 356Q475 336 471 321T464 286T454 234H432Q432 251 428 270T412 307T382 335T335 346L349 366ZM618
528Q619 587 605 621T564 670T497 685H494Q461 685 443 680T414 657T394 602L262 106Q253 70 254 52T270 29T319 23H332Q380 23 417 40T486 95T551 200H573Q568 187 563 168T552 128Q547 109 539 74T526 0Q475 2 413 2T300 3Q273 3 232 3T143 3T45 2T-48 0L-44
20Q-10 22 9 28T39 52T59 106L191 602Q201 639 199 656T182 680T132 688L137 708Q180 707 229 707T326 706T416 705T484 705Q530 705 587 705T691 708Q678 673 670 649T653 590Q649 572 646 556T640 528H618ZM433 824Q387 808 330 795T208 770L203 784Q294 813
372 859T498 956H516Q535 898 565 857T655 784L651 770Q601 778 563 786T494 804T433 824Z" />
<glyph unicode="&#xcb;" horiz-adv-x="637" d="M242 346L246 366H460L456 346H242ZM349 366Q373 366 395 375T436 400T469 436T492 478H514Q501 439 495 414T480 356Q475 336 471 321T464 286T454 234H432Q432 251 428 270T412 307T382 335T335 346L349 366ZM618
528Q619 587 605 621T564 670T497 685H494Q461 685 443 680T414 657T394 602L262 106Q253 70 254 52T270 29T319 23H332Q380 23 417 40T486 95T551 200H573Q568 187 563 168T552 128Q547 109 539 74T526 0Q475 2 413 2T300 3Q273 3 232 3T143 3T45 2T-48 0L-44
20Q-10 22 9 28T39 52T59 106L191 602Q201 639 199 656T182 680T132 688L137 708Q180 707 229 707T326 706T416 705T484 705Q530 705 587 705T691 708Q678 673 670 649T653 590Q649 572 646 556T640 528H618ZM230 838Q230 890 260 913T329 936Q369 936 386 915T404
858Q404 824 389 803T352 772T304 762Q264 762 247 783T230 838ZM488 838Q488 890 518 913T587 936Q627 936 644 915T662 858Q662 824 647 803T610 772T562 762Q522 762 505 783T488 838Z" />
<glyph unicode="&#xcc;" horiz-adv-x="422" d="M262 106Q253 70 254 52T271 28T321 20L317 0Q285 2 234 2T130 3Q76 3 29 3T-47 0L-42 20Q-9 22 9 28T39 52T59 106L191 602Q201 639 199 656T182 680T132 688L137 708Q165 707 212 706T314 705Q367 705 416 706T502
708L497 688Q463 687 444 681T415 657T394 602L262 106ZM652 772Q594 790 555 796T490 807T440 823Q415 836 405 860T407 909Q421 937 450 943T501 939Q526 928 543 908T585 857T659 784L652 772Z" />
<glyph unicode="&#xcd;" horiz-adv-x="422" d="M262 106Q253 70 254 52T271 28T321 20L317 0Q285 2 234 2T130 3Q76 3 29 3T-47 0L-42 20Q-9 22 9 28T39 52T59 106L191 602Q201 639 199 656T182 680T132 688L137 708Q165 707 212 706T314 705Q367 705 416 706T502
708L497 688Q463 687 444 681T415 657T394 602L262 106ZM322 784Q370 826 400 859T454 918T508 958Q525 967 545 969T585 964T616 935Q631 907 617 883T571 842Q545 828 511 820T433 801T329 772L322 784Z" />
<glyph unicode="&#xce;" horiz-adv-x="422" d="M262 106Q253 70 254 52T271 28T321 20L317 0Q285 2 234 2T130 3Q76 3 29 3T-47 0L-42 20Q-9 22 9 28T39 52T59 106L191 602Q201 639 199 656T182 680T132 688L137 708Q165 707 212 706T314 705Q367 705 416 706T502
708L497 688Q463 687 444 681T415 657T394 602L262 106ZM595 824Q549 808 492 795T370 770L365 784Q456 813 534 859T660 956H678Q697 898 727 857T817 784L813 770Q763 778 725 786T656 804T595 824Z" />
<glyph unicode="&#xcf;" horiz-adv-x="422" d="M262 106Q253 70 254 52T271 28T321 20L317 0Q285 2 234 2T130 3Q76 3 29 3T-47 0L-42 20Q-9 22 9 28T39 52T59 106L191 602Q201 639 199 656T182 680T132 688L137 708Q165 707 212 706T314 705Q367 705 416 706T502
708L497 688Q463 687 444 681T415 657T394 602L262 106ZM392 838Q392 890 422 913T491 936Q531 936 548 915T566 858Q566 824 551 803T514 772T466 762Q426 762 409 783T392 838ZM650 838Q650 890 680 913T749 936Q789 936 806 915T824 858Q824 824 809 803T772
772T724 762Q684 762 667 783T650 838Z" />
<glyph unicode="&#xd0;" horiz-adv-x="802" d="M791 457Q791 398 774 335T720 212T624 104T481 28T285 0Q269 0 248 1T197 2T127 3Q104 3 72 3T8 2T-43 0L-40 20Q-8 22 10 28T40 52T60 106L191 602Q198 628 197 646T182 675T133 688L136 708Q157 707 190 706T260
705T328 705Q342 706 370 706T427 707T476 708Q623 708 707 646T791 457ZM293 18Q349 18 395 47T476 125T536 237T572 365T585 493Q585 588 555 639T458 690Q436 690 426 684T410 660T394 604L263 104Q254 70 252 52T258 26T293 18ZM713 622L707 597H275L281 622H713Z"
/>
<glyph unicode="&#xd1;" horiz-adv-x="861" d="M543 -5L275 483Q275 483 277 501T281 542T285 584T287 602Q295 639 293 656T273 680T216 688L221 708Q237 707 260 706T310 705Q357 705 391 708L615 272Q615 272 612 252T602 201T590 134T578 67T569 15T565 -5H543ZM851
737Q826 737 804 721T766 682Q720 614 672 443T565 -5L551 23Q566 90 583 167T619 323T659 472T702 599T748 690Q767 717 793 735T856 754Q909 754 941 723T973 647Q973 599 941 571T861 542Q821 542 797 561T772 616Q772 661 802 691T876 729Q872 733 866 735T851
737ZM37 -57Q65 -57 86 -42T123 -1Q152 45 181 143T241 380T303 685L320 664Q304 582 287 498T251 333T214 183T176 64T139 -11Q121 -35 97 -54T32 -74Q-21 -74 -53 -43T-85 33Q-85 81 -52 109T27 138Q68 138 92 119T116 64Q116 19 86 -11T12 -49Q16 -53 22 -55T37
-57ZM509 948Q548 948 574 937T620 912T660 886T710 875Q733 875 753 888T792 933L810 928Q778 841 726 803T620 765Q581 765 555 776T509 801T469 827T419 838Q396 838 377 825T337 780L319 785Q351 872 403 910T509 948Z" />
<glyph unicode="&#xd2;" horiz-adv-x="809" d="M502 704Q463 704 426 677T357 601T301 490T264 356T250 213Q250 115 275 60T338 4Q377 4 414 31T483 107T539 218T576 352T590 495Q590 593 565 648T502 704ZM34 226Q34 292 56 362T119 496T218 611T351 692T511
722Q649 722 728 660T807 481Q807 415 785 346T722 212T621 97T489 16T329 -14Q191 -14 113 48T34 226ZM568 772Q510 790 471 796T406 807T356 823Q331 836 321 860T323 909Q337 937 366 943T417 939Q442 928 459 908T501 857T575 784L568 772Z" />
<glyph unicode="&#xd3;" horiz-adv-x="809" d="M502 704Q463 704 426 677T357 601T301 490T264 356T250 213Q250 115 275 60T338 4Q377 4 414 31T483 107T539 218T576 352T590 495Q590 593 565 648T502 704ZM34 226Q34 292 56 362T119 496T218 611T351 692T511
722Q649 722 728 660T807 481Q807 415 785 346T722 212T621 97T489 16T329 -14Q191 -14 113 48T34 226ZM494 784Q542 826 572 859T626 918T680 958Q697 967 717 969T757 964T788 935Q803 907 789 883T743 842Q717 828 683 820T605 801T501 772L494 784Z" />
<glyph unicode="&#xd4;" horiz-adv-x="809" d="M502 704Q463 704 426 677T357 601T301 490T264 356T250 213Q250 115 275 60T338 4Q377 4 414 31T483 107T539 218T576 352T590 495Q590 593 565 648T502 704ZM34 226Q34 292 56 362T119 496T218 611T351 692T511
722Q649 722 728 660T807 481Q807 415 785 346T722 212T621 97T489 16T329 -14Q191 -14 113 48T34 226ZM511 824Q465 808 408 795T286 770L281 784Q372 813 450 859T576 956H594Q613 898 643 857T733 784L729 770Q679 778 641 786T572 804T511 824Z" />
<glyph unicode="&#xd5;" horiz-adv-x="809" d="M502 704Q463 704 426 677T357 601T301 490T264 356T250 213Q250 115 275 60T338 4Q377 4 414 31T483 107T539 218T576 352T590 495Q590 593 565 648T502 704ZM34 226Q34 292 56 362T119 496T218 611T351 692T511
722Q649 722 728 660T807 481Q807 415 785 346T722 212T621 97T489 16T329 -14Q191 -14 113 48T34 226ZM483 948Q522 948 548 937T594 912T634 886T684 875Q707 875 727 888T766 933L784 928Q752 841 700 803T594 765Q555 765 529 776T483 801T443 827T393 838Q370
838 351 825T311 780L293 785Q325 872 377 910T483 948Z" />
<glyph unicode="&#xd6;" horiz-adv-x="809" d="M502 704Q463 704 426 677T357 601T301 490T264 356T250 213Q250 115 275 60T338 4Q377 4 414 31T483 107T539 218T576 352T590 495Q590 593 565 648T502 704ZM34 226Q34 292 56 362T119 496T218 611T351 692T511
722Q649 722 728 660T807 481Q807 415 785 346T722 212T621 97T489 16T329 -14Q191 -14 113 48T34 226ZM308 838Q308 890 338 913T407 936Q447 936 464 915T482 858Q482 824 467 803T430 772T382 762Q342 762 325 783T308 838ZM566 838Q566 890 596 913T665 936Q705
936 722 915T740 858Q740 824 725 803T688 772T640 762Q600 762 583 783T566 838Z" />
<glyph unicode="&#xd7;" horiz-adv-x="485" d="M13 182L236 355L111 530L137 548L260 373L487 550L503 528L276 352L401 179L376 161L252 334L28 160L13 182Z" />
<glyph unicode="&#xd8;" horiz-adv-x="809" d="M502 704Q463 704 426 677T357 601T301 490T264 356T250 213Q250 115 275 60T338 4Q377 4 414 31T483 107T539 218T576 352T590 495Q590 593 565 648T502 704ZM34 226Q34 292 56 362T119 496T218 611T351 692T511
722Q649 722 728 660T807 481Q807 415 785 346T722 212T621 97T489 16T329 -14Q191 -14 113 48T34 226ZM666 632L801 773L816 760L676 612L666 632ZM170 74L26 -73L9 -59L157 92L170 74ZM199 96L649 632L659 612L212 78L199 96Z" />
<glyph unicode="&#xd9;" horiz-adv-x="702" d="M651 512Q669 579 672 614T659 666T595 688L601 708Q621 707 652 706T712 705Q735 705 757 706T796 708L790 688Q758 682 739 667T707 621T678 532L616 291Q580 153 518 79Q482 37 429 12T313 -14Q222 -14 168 13T91
81Q71 119 71 168T89 288L172 602Q182 639 180 656T163 680T113 688L119 708Q148 707 199 706T308 705Q358 705 403 706T483 708L477 688Q443 687 424 681T395 657T374 602L286 271Q268 202 263 155T265 78T290 35T332 21Q407 21 457 54T539 147T590 280L651 512ZM557
772Q499 790 460 796T395 807T345 823Q320 836 310 860T312 909Q326 937 355 943T406 939Q431 928 448 908T490 857T564 784L557 772Z" />
<glyph unicode="&#xda;" horiz-adv-x="702" d="M651 512Q669 579 672 614T659 666T595 688L601 708Q621 707 652 706T712 705Q735 705 757 706T796 708L790 688Q758 682 739 667T707 621T678 532L616 291Q580 153 518 79Q482 37 429 12T313 -14Q222 -14 168 13T91
81Q71 119 71 168T89 288L172 602Q182 639 180 656T163 680T113 688L119 708Q148 707 199 706T308 705Q358 705 403 706T483 708L477 688Q443 687 424 681T395 657T374 602L286 271Q268 202 263 155T265 78T290 35T332 21Q407 21 457 54T539 147T590 280L651 512ZM483
784Q531 826 561 859T615 918T669 958Q686 967 706 969T746 964T777 935Q792 907 778 883T732 842Q706 828 672 820T594 801T490 772L483 784Z" />
<glyph unicode="&#xdb;" horiz-adv-x="702" d="M651 512Q669 579 672 614T659 666T595 688L601 708Q621 707 652 706T712 705Q735 705 757 706T796 708L790 688Q758 682 739 667T707 621T678 532L616 291Q580 153 518 79Q482 37 429 12T313 -14Q222 -14 168 13T91
81Q71 119 71 168T89 288L172 602Q182 639 180 656T163 680T113 688L119 708Q148 707 199 706T308 705Q358 705 403 706T483 708L477 688Q443 687 424 681T395 657T374 602L286 271Q268 202 263 155T265 78T290 35T332 21Q407 21 457 54T539 147T590 280L651 512ZM500
824Q454 808 397 795T275 770L270 784Q361 813 439 859T565 956H583Q602 898 632 857T722 784L718 770Q668 778 630 786T561 804T500 824Z" />
<glyph unicode="&#xdc;" horiz-adv-x="702" d="M651 512Q669 579 672 614T659 666T595 688L601 708Q621 707 652 706T712 705Q735 705 757 706T796 708L790 688Q758 682 739 667T707 621T678 532L616 291Q580 153 518 79Q482 37 429 12T313 -14Q222 -14 168 13T91
81Q71 119 71 168T89 288L172 602Q182 639 180 656T163 680T113 688L119 708Q148 707 199 706T308 705Q358 705 403 706T483 708L477 688Q443 687 424 681T395 657T374 602L286 271Q268 202 263 155T265 78T290 35T332 21Q407 21 457 54T539 147T590 280L651 512ZM297
838Q297 890 327 913T396 936Q436 936 453 915T471 858Q471 824 456 803T419 772T371 762Q331 762 314 783T297 838ZM555 838Q555 890 585 913T654 936Q694 936 711 915T729 858Q729 824 714 803T677 772T629 762Q589 762 572 783T555 838Z" />
<glyph unicode="&#xdd;" horiz-adv-x="776" d="M422 106Q413 70 419 52T446 28T501 20L496 0Q475 1 441 1T367 2T292 3Q238 3 189 3T111 0L116 20Q150 22 169 28T199 52T219 106L288 380L373 317L466 336L500 416L422 106ZM732 705Q716 705 702 700T668 681Q643
663 606 609T530 469T463 270L275 265Q271 312 264 363T247 462T223 550T193 613T157 636Q138 636 128 621T112 589L95 538Q95 538 84 538T73 538L94 602Q117 671 164 696T263 722Q340 722 380 682T438 562T470 369Q501 464 539 538T618 662Q641 689 670 705T737
722Q790 722 822 691T854 615Q854 567 822 539T742 510Q702 510 678 529T653 584Q653 629 683 659T757 697Q753 701 747 703T732 705ZM473 784Q521 826 551 859T605 918T659 958Q676 967 696 969T736 964T767 935Q782 907 768 883T722 842Q696 828 662 820T584
801T480 772L473 784Z" />
<glyph unicode="&#xde;" horiz-adv-x="698" d="M297 553Q333 553 369 554T443 555Q575 555 638 514T702 404Q702 326 647 265T494 168T265 132H225Q225 132 227 142T230 152H275Q329 152 369 175T437 236T477 323T491 420Q491 470 466 503T394 536Q370 536 356
535T329 533T298 530L297 553ZM262 106Q253 70 254 52T271 28T321 20L317 0Q285 2 234 2T130 3Q76 3 29 3T-47 0L-42 20Q-9 22 9 28T39 52T59 106L191 602Q201 639 199 656T182 680T132 688L137 708Q165 707 212 706T314 705Q367 705 416 706T502 708L497 688Q463
687 444 681T415 657T394 602L262 106Z" />
<glyph unicode="&#xdf;" horiz-adv-x="648" d="M420 767Q387 767 366 733T327 636L114 -174Q63 -175 19 -178T-66 -188L120 515Q144 607 183 666T284 753T441 782Q521 782 569 768T638 731T660 684Q660 656 644 635T598 595T530 551T449 494Q420 471 407 458T392
436T389 422Q389 398 406 376T449 333T499 291Q528 267 550 247T586 204T599 150Q599 93 566 57T480 4T368 -14Q320 -14 288 2T239 45T222 107Q222 142 241 170T293 198Q314 198 329 186T353 152T362 102Q362 77 353 51T327 8Q329 7 332 7T341 6Q364 6 379 32T395
99Q395 134 388 161T371 221Q362 252 350 291T338 363Q338 393 349 413T380 454T427 501Q464 539 475 587T487 678Q487 728 467 747T420 767Z" />
<glyph unicode="&#xe0;" d="M204 54Q214 54 225 62T248 89T274 144T304 234L278 125Q262 72 238 42T183 -1T117 -14Q54 -14 24 18T-7 111Q-7 169 12 229T65 343T140 440T227 508T314 533Q346 533 363 513T376 442L365 436Q370 461 365 472T348 484Q331 484 310
463T266 404T224 318T193 215T181 107Q181 79 186 67T204 54ZM389 518Q444 519 486 522T570 533L435 85Q430 69 430 60T435 47T447 43Q456 43 470 53T500 106L521 162H540L515 89Q501 47 478 25T427 -5T372 -14Q311 -14 285 21Q270 42 269 76T281 158L389 518ZM387
599Q347 645 317 671T267 714T233 754Q219 777 223 803T250 844Q276 861 304 851T346 821Q361 799 365 772T374 706T399 606L387 599Z" />
<glyph unicode="&#xe1;" d="M204 54Q214 54 225 62T248 89T274 144T304 234L278 125Q262 72 238 42T183 -1T117 -14Q54 -14 24 18T-7 111Q-7 169 12 229T65 343T140 440T227 508T314 533Q346 533 363 513T376 442L365 436Q370 461 365 472T348 484Q331 484 310
463T266 404T224 318T193 215T181 107Q181 79 186 67T204 54ZM389 518Q444 519 486 522T570 533L435 85Q430 69 430 60T435 47T447 43Q456 43 470 53T500 106L521 162H540L515 89Q501 47 478 25T427 -5T372 -14Q311 -14 285 21Q270 42 269 76T281 158L389 518ZM328
609Q362 663 381 703T417 774T456 828Q476 848 508 855T566 837Q589 815 582 788T550 736Q529 715 499 697T429 657T338 599L328 609Z" />
<glyph unicode="&#xe2;" d="M204 54Q214 54 225 62T248 89T274 144T304 234L278 125Q262 72 238 42T183 -1T117 -14Q54 -14 24 18T-7 111Q-7 169 12 229T65 343T140 440T227 508T314 533Q346 533 363 513T376 442L365 436Q370 461 365 472T348 484Q331 484 310
463T266 404T224 318T193 215T181 107Q181 79 186 67T204 54ZM389 518Q444 519 486 522T570 533L435 85Q430 69 430 60T435 47T447 43Q456 43 470 53T500 106L521 162H540L515 89Q501 47 478 25T427 -5T372 -14Q311 -14 285 21Q270 42 269 76T281 158L389 518ZM370
660Q333 644 285 631T185 606L180 620Q259 655 326 712T435 832H453Q469 759 495 709T572 620L568 606Q501 618 456 631T370 660Z" />
<glyph unicode="&#xe3;" d="M204 54Q214 54 225 62T248 89T274 144T304 234L278 125Q262 72 238 42T183 -1T117 -14Q54 -14 24 18T-7 111Q-7 169 12 229T65 343T140 440T227 508T314 533Q346 533 363 513T376 442L365 436Q370 461 365 472T348 484Q331 484 310
463T266 404T224 318T193 215T181 107Q181 79 186 67T204 54ZM389 518Q444 519 486 522T570 533L435 85Q430 69 430 60T435 47T447 43Q456 43 470 53T500 106L521 162H540L515 89Q501 47 478 25T427 -5T372 -14Q311 -14 285 21Q270 42 269 76T281 158L389 518ZM373
798Q403 798 422 787T457 762T487 736T524 725Q544 725 561 738T596 783L614 778Q585 691 538 653T444 615Q414 615 395 626T360 651T330 677T293 688Q273 688 256 675T221 630L203 635Q232 722 279 760T373 798Z" />
<glyph unicode="&#xe4;" d="M204 54Q214 54 225 62T248 89T274 144T304 234L278 125Q262 72 238 42T183 -1T117 -14Q54 -14 24 18T-7 111Q-7 169 12 229T65 343T140 440T227 508T314 533Q346 533 363 513T376 442L365 436Q370 461 365 472T348 484Q331 484 310
463T266 404T224 318T193 215T181 107Q181 79 186 67T204 54ZM389 518Q444 519 486 522T570 533L435 85Q430 69 430 60T435 47T447 43Q456 43 470 53T500 106L521 162H540L515 89Q501 47 478 25T427 -5T372 -14Q311 -14 285 21Q270 42 269 76T281 158L389 518ZM202
674Q202 726 232 749T301 772Q341 772 358 751T376 694Q376 660 361 639T324 608T276 598Q236 598 219 619T202 674ZM440 674Q440 726 470 749T539 772Q579 772 596 751T614 694Q614 660 599 639T562 608T514 598Q474 598 457 619T440 674Z" />
<glyph unicode="&#xe5;" d="M204 54Q214 54 225 62T248 89T274 144T304 234L278 125Q262 72 238 42T183 -1T117 -14Q54 -14 24 18T-7 111Q-7 169 12 229T65 343T140 440T227 508T314 533Q346 533 363 513T376 442L365 436Q370 461 365 472T348 484Q331 484 310
463T266 404T224 318T193 215T181 107Q181 79 186 67T204 54ZM389 518Q444 519 486 522T570 533L435 85Q430 69 430 60T435 47T447 43Q456 43 470 53T500 106L521 162H540L515 89Q501 47 478 25T427 -5T372 -14Q311 -14 285 21Q270 42 269 76T281 158L389 518ZM425
801Q470 801 500 777T531 712Q531 681 513 655T464 614T398 598Q355 598 326 622T296 688Q296 720 313 745T359 786T425 801ZM403 619Q429 619 452 631T490 664T505 710Q505 746 478 763T422 780Q382 780 353 752T323 688Q323 654 348 637T403 619Z" />
<glyph unicode="&#xe6;" horiz-adv-x="785" d="M451 210Q480 224 512 240T569 279Q613 319 637 373T662 489Q662 514 646 514Q626 514 603 492T556 432T515 347T485 251T473 155Q473 97 496 78T556 58Q576 58 616 73T696 128L712 120Q690 87 654 56T569 6T459
-14Q412 -14 373 2T310 49T286 127Q286 186 304 244T357 354T438 446T544 510T668 533Q721 533 756 512T792 445Q792 407 772 374T717 313T638 263T546 225T450 200L451 210ZM225 54Q238 54 249 57T272 70T299 94L303 78Q268 32 217 9T112 -14Q49 -14 19 18T-12
111Q-12 166 12 223T78 332T174 424T288 489T409 513Q425 513 442 509T474 493T494 455L480 446Q477 467 463 475T434 484Q402 484 366 464T297 409T236 328T192 228T176 117Q176 83 191 69T225 54Z" />
<glyph unicode="&#xe7;" horiz-adv-x="484" d="M382 513Q345 513 310 482T248 398T205 281T189 150Q189 96 211 72T269 48Q298 48 328 65T389 128L409 120Q388 87 357 56T282 6T180 -14Q104 -14 53 24T2 144Q2 196 18 250T66 355T143 446T245 509T369 533Q431
533 465 502T499 429Q499 397 483 367T441 318T382 298Q356 298 335 316T314 368Q314 417 345 453T416 501Q409 507 401 510T382 513ZM197 0L147 -67Q161 -62 177 -59T209 -55Q238 -55 259 -65T281 -98Q281 -131 253 -150T180 -179T90 -188Q57 -188 32 -182T-6
-170L0 -154Q8 -156 24 -160T61 -164Q73 -164 92 -161T127 -149T143 -122Q143 -99 115 -99Q110 -99 101 -100T84 -106L168 0H197Z" />
<glyph unicode="&#xe8;" horiz-adv-x="496" d="M162 210Q194 225 225 246T282 292Q322 331 347 381T373 489Q373 503 369 508T357 514Q337 514 314 492T267 432T226 347T196 251T184 155Q184 97 207 78T267 58Q287 58 327 73T407 128L423 120Q401 87 365 56T280
6T170 -14Q123 -14 84 2T21 49T-3 127Q-3 186 15 244T68 354T149 446T255 510T379 533Q432 533 467 512T503 445Q503 407 483 374T428 313T349 263T257 225T161 200L162 210ZM366 599Q326 645 296 671T246 714T212 754Q198 777 202 803T229 844Q255 861 283 851T325
821Q340 799 344 772T353 706T378 606L366 599Z" />
<glyph unicode="&#xe9;" horiz-adv-x="496" d="M162 210Q194 225 225 246T282 292Q322 331 347 381T373 489Q373 503 369 508T357 514Q337 514 314 492T267 432T226 347T196 251T184 155Q184 97 207 78T267 58Q287 58 327 73T407 128L423 120Q401 87 365 56T280
6T170 -14Q123 -14 84 2T21 49T-3 127Q-3 186 15 244T68 354T149 446T255 510T379 533Q432 533 467 512T503 445Q503 407 483 374T428 313T349 263T257 225T161 200L162 210ZM307 609Q341 663 360 703T396 774T435 828Q455 848 487 855T545 837Q568 815 561 788T529
736Q508 715 478 697T408 657T317 599L307 609Z" />
<glyph unicode="&#xea;" horiz-adv-x="496" d="M162 210Q194 225 225 246T282 292Q322 331 347 381T373 489Q373 503 369 508T357 514Q337 514 314 492T267 432T226 347T196 251T184 155Q184 97 207 78T267 58Q287 58 327 73T407 128L423 120Q401 87 365 56T280
6T170 -14Q123 -14 84 2T21 49T-3 127Q-3 186 15 244T68 354T149 446T255 510T379 533Q432 533 467 512T503 445Q503 407 483 374T428 313T349 263T257 225T161 200L162 210ZM349 660Q312 644 264 631T164 606L159 620Q238 655 305 712T414 832H432Q448 759 474
709T551 620L547 606Q480 618 435 631T349 660Z" />
<glyph unicode="&#xeb;" horiz-adv-x="496" d="M162 210Q194 225 225 246T282 292Q322 331 347 381T373 489Q373 503 369 508T357 514Q337 514 314 492T267 432T226 347T196 251T184 155Q184 97 207 78T267 58Q287 58 327 73T407 128L423 120Q401 87 365 56T280
6T170 -14Q123 -14 84 2T21 49T-3 127Q-3 186 15 244T68 354T149 446T255 510T379 533Q432 533 467 512T503 445Q503 407 483 374T428 313T349 263T257 225T161 200L162 210ZM181 674Q181 726 211 749T280 772Q320 772 337 751T355 694Q355 660 340 639T303 608T255
598Q215 598 198 619T181 674ZM419 674Q419 726 449 749T518 772Q558 772 575 751T593 694Q593 660 578 639T541 608T493 598Q453 598 436 619T419 674Z" />
<glyph unicode="&#xec;" horiz-adv-x="335" d="M126 434Q140 476 117 476Q102 476 89 463T62 413L39 352H20L48 430Q62 468 83 490T134 523T197 533Q235 533 258 520T291 487T301 442T293 393L189 85Q181 60 186 52T201 43Q210 43 224 53T254 106L275 162H294L269
89Q254 47 231 25T181 -5T126 -14Q82 -14 55 4T21 61T34 158L126 434ZM484 599Q444 645 414 671T364 714T330 754Q316 777 320 803T347 844Q373 861 401 851T443 821Q458 799 462 772T471 706T496 606L484 599Z" />
<glyph unicode="&#xed;" horiz-adv-x="335" d="M126 434Q140 476 117 476Q102 476 89 463T62 413L39 352H20L48 430Q62 468 83 490T134 523T197 533Q235 533 258 520T291 487T301 442T293 393L189 85Q181 60 186 52T201 43Q210 43 224 53T254 106L275 162H294L269
89Q254 47 231 25T181 -5T126 -14Q82 -14 55 4T21 61T34 158L126 434ZM169 609Q203 663 222 703T258 774T297 828Q317 848 349 855T407 837Q430 815 423 788T391 736Q370 715 340 697T270 657T179 599L169 609Z" />
<glyph unicode="&#xee;" horiz-adv-x="335" d="M126 434Q140 476 117 476Q102 476 89 463T62 413L39 352H20L48 430Q62 468 83 490T134 523T197 533Q235 533 258 520T291 487T301 442T293 393L189 85Q181 60 186 52T201 43Q210 43 224 53T254 106L275 162H294L269
89Q254 47 231 25T181 -5T126 -14Q82 -14 55 4T21 61T34 158L126 434ZM467 660Q430 644 382 631T282 606L277 620Q356 655 423 712T532 832H550Q566 759 592 709T669 620L665 606Q598 618 553 631T467 660Z" />
<glyph unicode="&#xef;" horiz-adv-x="335" d="M126 434Q140 476 117 476Q102 476 89 463T62 413L39 352H20L48 430Q62 468 83 490T134 523T197 533Q235 533 258 520T291 487T301 442T293 393L189 85Q181 60 186 52T201 43Q210 43 224 53T254 106L275 162H294L269
89Q254 47 231 25T181 -5T126 -14Q82 -14 55 4T21 61T34 158L126 434ZM299 674Q299 726 329 749T398 772Q438 772 455 751T473 694Q473 660 458 639T421 608T373 598Q333 598 316 619T299 674ZM537 674Q537 726 567 749T636 772Q676 772 693 751T711 694Q711 660
696 639T659 608T611 598Q571 598 554 619T537 674Z" />
<glyph unicode="&#xf0;" horiz-adv-x="556" d="M344 684L516 760L522 742L358 670L344 684ZM358 669L139 572L133 590L344 683L358 669ZM346 421Q346 502 330 566T279 680T190 765L202 782Q298 752 372 694T489 557T532 388Q532 330 518 273T476 164T406 72T309
9T184 -14Q135 -14 95 2T30 55T6 157Q6 203 19 254T58 353T121 441T206 504T311 528Q338 528 354 521T390 494L383 482Q374 495 357 501T326 508Q299 508 278 480T240 403T213 297T197 179T192 67Q192 27 196 17T211 6Q233 6 253 32T290 102T319 200T339 311T346
421Z" />
<glyph unicode="&#xf1;" horiz-adv-x="619" d="M180 0H3L125 434Q130 450 131 459T129 472T116 476Q101 476 88 463T61 413L38 352H19L47 430Q66 483 99 508T184 533Q223 533 246 521T279 487T289 442T283 393L180 0ZM203 143Q244 265 278 341T345 460T412 517T487
533Q537 533 560 513T584 459T572 382L473 85Q463 57 470 50T485 43Q494 43 508 53T538 106L559 162H578L553 89Q539 47 516 25T465 -5T410 -14Q379 -14 356 -5T320 22Q305 43 304 74T319 158L405 417Q411 435 412 447T412 465T403 471Q387 471 365 444T319 370T269
263T221 136T181 3L203 143ZM359 798Q389 798 408 787T443 762T473 736T510 725Q530 725 547 738T582 783L600 778Q571 691 524 653T430 615Q400 615 381 626T346 651T316 677T279 688Q259 688 242 675T207 630L189 635Q218 722 265 760T359 798Z" />
<glyph unicode="&#xf2;" horiz-adv-x="557" d="M349 513Q332 513 309 485T262 408T218 301T185 180T172 62Q172 31 176 19T191 6Q207 6 229 33T275 106T319 210T353 331T366 455Q366 493 361 503T349 513ZM6 156Q6 203 19 255T59 356T127 446T225 509T354 533Q441
533 486 489T532 363Q532 316 519 264T479 163T411 73T313 10T184 -14Q97 -14 52 30T6 156ZM373 599Q333 645 303 671T253 714T219 754Q205 777 209 803T236 844Q262 861 290 851T332 821Q347 799 351 772T360 706T385 606L373 599Z" />
<glyph unicode="&#xf3;" horiz-adv-x="557" d="M349 513Q332 513 309 485T262 408T218 301T185 180T172 62Q172 31 176 19T191 6Q207 6 229 33T275 106T319 210T353 331T366 455Q366 493 361 503T349 513ZM6 156Q6 203 19 255T59 356T127 446T225 509T354 533Q441
533 486 489T532 363Q532 316 519 264T479 163T411 73T313 10T184 -14Q97 -14 52 30T6 156ZM314 609Q348 663 367 703T403 774T442 828Q462 848 494 855T552 837Q575 815 568 788T536 736Q515 715 485 697T415 657T324 599L314 609Z" />
<glyph unicode="&#xf4;" horiz-adv-x="557" d="M349 513Q332 513 309 485T262 408T218 301T185 180T172 62Q172 31 176 19T191 6Q207 6 229 33T275 106T319 210T353 331T366 455Q366 493 361 503T349 513ZM6 156Q6 203 19 255T59 356T127 446T225 509T354 533Q441
533 486 489T532 363Q532 316 519 264T479 163T411 73T313 10T184 -14Q97 -14 52 30T6 156ZM356 660Q319 644 271 631T171 606L166 620Q245 655 312 712T421 832H439Q455 759 481 709T558 620L554 606Q487 618 442 631T356 660Z" />
<glyph unicode="&#xf5;" horiz-adv-x="557" d="M349 513Q332 513 309 485T262 408T218 301T185 180T172 62Q172 31 176 19T191 6Q207 6 229 33T275 106T319 210T353 331T366 455Q366 493 361 503T349 513ZM6 156Q6 203 19 255T59 356T127 446T225 509T354 533Q441
533 486 489T532 363Q532 316 519 264T479 163T411 73T313 10T184 -14Q97 -14 52 30T6 156ZM359 798Q389 798 408 787T443 762T473 736T510 725Q530 725 547 738T582 783L600 778Q571 691 524 653T430 615Q400 615 381 626T346 651T316 677T279 688Q259 688 242
675T207 630L189 635Q218 722 265 760T359 798Z" />
<glyph unicode="&#xf6;" horiz-adv-x="557" d="M349 513Q332 513 309 485T262 408T218 301T185 180T172 62Q172 31 176 19T191 6Q207 6 229 33T275 106T319 210T353 331T366 455Q366 493 361 503T349 513ZM6 156Q6 203 19 255T59 356T127 446T225 509T354 533Q441
533 486 489T532 363Q532 316 519 264T479 163T411 73T313 10T184 -14Q97 -14 52 30T6 156ZM188 674Q188 726 218 749T287 772Q327 772 344 751T362 694Q362 660 347 639T310 608T262 598Q222 598 205 619T188 674ZM426 674Q426 726 456 749T525 772Q565 772 582
751T600 694Q600 660 585 639T548 608T500 598Q460 598 443 619T426 674Z" />
<glyph unicode="&#xf7;" horiz-adv-x="622" d="M337 499Q344 522 365 538T408 554Q431 554 443 538T448 499Q441 476 420 460T376 444Q354 444 342 460T337 499ZM254 211Q261 234 282 250T325 266Q348 266 360 250T365 211Q358 188 337 172T293 155Q271 155 259
171T254 211ZM72 340L81 370H582L573 340H72Z" />
<glyph unicode="&#xf8;" horiz-adv-x="557" d="M349 513Q332 513 309 485T262 408T218 301T185 180T172 62Q172 31 176 19T191 6Q207 6 229 33T275 106T319 210T353 331T366 455Q366 493 361 503T349 513ZM6 156Q6 203 19 255T59 356T127 446T225 509T354 533Q441
533 486 489T532 363Q532 316 519 264T479 163T411 73T313 10T184 -14Q97 -14 52 30T6 156ZM381 468L470 609L487 601L391 451L381 468ZM386 459L162 24L152 42L377 476L386 459ZM150 24L78 -89L62 -80L140 42L150 24Z" />
<glyph unicode="&#xf9;" horiz-adv-x="617" d="M391 354Q352 237 318 165T252 54T185 1T110 -14Q70 -14 46 3T18 53T29 137L126 434Q136 463 129 469T114 476Q105 476 91 466T61 413L40 357H21L46 430Q61 472 84 494T135 524T189 533Q234 533 261 515T294 458T280
361L194 102Q176 48 196 48Q212 48 234 75T281 149T331 256T379 383T419 516L391 354ZM474 85Q467 62 468 53T483 43Q498 43 511 56T538 106L561 167H580L552 89Q539 52 517 29T467 -4T409 -14Q374 -14 353 -4T320 25Q308 45 308 71T316 126L419 519Q471 520 516
523T600 533L474 85ZM366 599Q326 645 296 671T246 714T212 754Q198 777 202 803T229 844Q255 861 283 851T325 821Q340 799 344 772T353 706T378 606L366 599Z" />
<glyph unicode="&#xfa;" horiz-adv-x="617" d="M391 354Q352 237 318 165T252 54T185 1T110 -14Q70 -14 46 3T18 53T29 137L126 434Q136 463 129 469T114 476Q105 476 91 466T61 413L40 357H21L46 430Q61 472 84 494T135 524T189 533Q234 533 261 515T294 458T280
361L194 102Q176 48 196 48Q212 48 234 75T281 149T331 256T379 383T419 516L391 354ZM474 85Q467 62 468 53T483 43Q498 43 511 56T538 106L561 167H580L552 89Q539 52 517 29T467 -4T409 -14Q374 -14 353 -4T320 25Q308 45 308 71T316 126L419 519Q471 520 516
523T600 533L474 85ZM307 609Q341 663 360 703T396 774T435 828Q455 848 487 855T545 837Q568 815 561 788T529 736Q508 715 478 697T408 657T317 599L307 609Z" />
<glyph unicode="&#xfb;" horiz-adv-x="617" d="M391 354Q352 237 318 165T252 54T185 1T110 -14Q70 -14 46 3T18 53T29 137L126 434Q136 463 129 469T114 476Q105 476 91 466T61 413L40 357H21L46 430Q61 472 84 494T135 524T189 533Q234 533 261 515T294 458T280
361L194 102Q176 48 196 48Q212 48 234 75T281 149T331 256T379 383T419 516L391 354ZM474 85Q467 62 468 53T483 43Q498 43 511 56T538 106L561 167H580L552 89Q539 52 517 29T467 -4T409 -14Q374 -14 353 -4T320 25Q308 45 308 71T316 126L419 519Q471 520 516
523T600 533L474 85ZM349 660Q312 644 264 631T164 606L159 620Q238 655 305 712T414 832H432Q448 759 474 709T551 620L547 606Q480 618 435 631T349 660Z" />
<glyph unicode="&#xfc;" horiz-adv-x="617" d="M391 354Q352 237 318 165T252 54T185 1T110 -14Q70 -14 46 3T18 53T29 137L126 434Q136 463 129 469T114 476Q105 476 91 466T61 413L40 357H21L46 430Q61 472 84 494T135 524T189 533Q234 533 261 515T294 458T280
361L194 102Q176 48 196 48Q212 48 234 75T281 149T331 256T379 383T419 516L391 354ZM474 85Q467 62 468 53T483 43Q498 43 511 56T538 106L561 167H580L552 89Q539 52 517 29T467 -4T409 -14Q374 -14 353 -4T320 25Q308 45 308 71T316 126L419 519Q471 520 516
523T600 533L474 85ZM181 674Q181 726 211 749T280 772Q320 772 337 751T355 694Q355 660 340 639T303 608T255 598Q215 598 198 619T181 674ZM419 674Q419 726 449 749T518 772Q558 772 575 751T593 694Q593 660 578 639T541 608T493 598Q453 598 436 619T419
674Z" />
<glyph unicode="&#xfd;" horiz-adv-x="483" d="M323 75L190 -78L106 433Q102 458 98 467T85 476Q75 476 68 465T45 413L24 357H5L30 430Q51 491 83 512T159 533Q206 533 236 509T277 414L323 75ZM71 -137Q120 -115 171 -76T275 31Q328 97 366 168T425 300Q395
317 372 340T335 392T321 451Q321 489 341 511T399 533Q439 533 457 507T475 436Q475 391 460 337T417 223T354 108T278 4Q236 -47 191 -84T101 -145T10 -180Q-6 -184 -21 -186T-49 -188Q-89 -188 -110 -171T-132 -122Q-132 -93 -111 -71T-52 -49Q-15 -49 15 -71T71
-137ZM267 609Q301 663 320 703T356 774T395 828Q415 848 447 855T505 837Q528 815 521 788T489 736Q468 715 438 697T368 657T277 599L267 609Z" />
<glyph unicode="&#xfe;" horiz-adv-x="606" d="M371 466Q355 466 338 448T303 398T271 325T245 238L264 336Q288 405 315 448T374 512T444 533Q514 533 547 491T581 370Q581 323 568 271T530 168T468 76T384 11T278 -14Q244 -14 216 -6T172 13L179 26Q187 23 195
21T213 19Q240 19 266 41T316 100T357 185T385 284T395 385Q395 438 389 452T371 466ZM218 757Q271 762 316 771T405 795L162 -67Q146 -125 165 -142T237 -160L231 -181Q205 -180 158 -179T57 -177Q11 -177 -35 -178T-104 -181L-98 -160Q-62 -160 -46 -147T-20
-98L218 757ZM4 346Q39 385 69 424T129 517T189 652L192 636Q172 566 145 513T85 417T15 333L4 346Z" />
<glyph unicode="&#xff;" horiz-adv-x="483" d="M323 75L190 -78L106 433Q102 458 98 467T85 476Q75 476 68 465T45 413L24 357H5L30 430Q51 491 83 512T159 533Q206 533 236 509T277 414L323 75ZM71 -137Q120 -115 171 -76T275 31Q328 97 366 168T425 300Q395
317 372 340T335 392T321 451Q321 489 341 511T399 533Q439 533 457 507T475 436Q475 391 460 337T417 223T354 108T278 4Q236 -47 191 -84T101 -145T10 -180Q-6 -184 -21 -186T-49 -188Q-89 -188 -110 -171T-132 -122Q-132 -93 -111 -71T-52 -49Q-15 -49 15 -71T71
-137ZM141 674Q141 726 171 749T240 772Q280 772 297 751T315 694Q315 660 300 639T263 608T215 598Q175 598 158 619T141 674ZM379 674Q379 726 409 749T478 772Q518 772 535 751T553 694Q553 660 538 639T501 608T453 598Q413 598 396 619T379 674Z" />
<glyph unicode="&#x2013;" horiz-adv-x="665" d="M89 341H604L562 202H47L89 341Z" />
<glyph unicode="&#x2014;" horiz-adv-x="958" d="M87 341H895L853 202H45L87 341Z" />
<glyph unicode="&#x2018;" horiz-adv-x="297" d="M120 518Q120 589 160 645T270 732L275 714Q235 697 202 661T165 577Q179 592 197 600T235 608Q273 608 293 591T313 542Q313 511 299 487T259 450T201 436Q163 436 142 455T120 518Z" />
<glyph unicode="&#x2019;" horiz-adv-x="288" d="M327 672Q327 602 287 545T177 458L172 476Q213 493 246 529T282 613Q268 598 250 590T212 582Q175 582 155 599T134 648Q134 679 148 703T188 740T246 754Q284 754 305 735T327 672Z" />
<glyph unicode="&#x201a;" horiz-adv-x="310" d="M192 76Q192 6 152 -51T42 -138L37 -120Q78 -103 111 -67T147 17Q133 2 115 -6T77 -14Q40 -14 20 3T-1 52Q-1 83 13 107T53 144T111 158Q149 158 170 139T192 76Z" />
<glyph unicode="&#x201c;" horiz-adv-x="515" d="M337 519Q337 590 377 647T487 733L492 715Q452 698 419 662T382 578Q396 593 414 601T452 609Q490 609 510 592T530 543Q530 512 516 488T476 451T418 437Q380 437 359 456T337 519ZM120 519Q120 590 160 647T270
733L275 715Q235 698 202 662T165 578Q179 593 197 601T235 609Q273 609 293 592T313 543Q313 512 299 488T259 451T201 437Q163 437 142 456T120 519Z" />
<glyph unicode="&#x201d;" horiz-adv-x="505" d="M328 675Q328 605 288 548T178 461L173 479Q214 496 247 532T283 616Q269 601 251 593T213 585Q176 585 156 602T135 651Q135 682 149 706T189 743T247 757Q285 757 306 738T328 675ZM545 675Q545 605 505 548T395
461L390 479Q431 496 464 532T500 616Q486 601 468 593T430 585Q393 585 373 602T352 651Q352 682 366 706T406 743T464 757Q502 757 523 738T545 675Z" />
<glyph unicode="&#x201e;" horiz-adv-x="527" d="M192 76Q192 6 152 -51T42 -138L37 -120Q78 -103 111 -67T147 17Q133 2 115 -6T77 -14Q40 -14 20 3T-1 52Q-1 83 13 107T53 144T111 158Q149 158 170 139T192 76ZM409 76Q409 6 369 -51T259 -138L254 -120Q295
-103 328 -67T364 17Q350 2 332 -6T294 -14Q257 -14 237 3T216 52Q216 83 230 107T270 144T328 158Q366 158 387 139T409 76Z" />
<glyph unicode="&#x2022;" horiz-adv-x="421" d="M56 249Q61 289 83 321T139 372T213 392Q253 392 283 373T330 321T341 249Q337 210 315 178T258 126T184 107Q145 107 115 126T68 177T56 249Z" />
<glyph unicode="&#x2039;" horiz-adv-x="406" d="M402 533Q387 502 365 463T316 385T263 312T215 259Q227 239 238 206T257 134T270 57T275 -14H257Q205 58 147 124T15 249L20 269Q121 328 209 394T384 533H402Z" />
<glyph unicode="&#x203a;" horiz-adv-x="404" d="M129 533Q182 461 240 395T372 269L367 249Q266 191 178 125T3 -14H-15Q0 18 22 56T71 134T123 206T170 259Q158 279 148 312T129 384T116 463T111 533H129Z" />
</font>
</defs>
</svg>
