<?xml version="1.0" standalone="no"?>
<!DOCTYPE svg PUBLIC "-//W3C//DTD SVG 1.1//EN" "http://www.w3.org/Graphics/SVG/1.1/DTD/svg11.dtd" >
<svg xmlns="http://www.w3.org/2000/svg">
<metadata>Generated by IcoMoon</metadata>
<defs>
<font id="Icons" horiz-adv-x="1024">
<font-face units-per-em="1024" ascent="960" descent="-64" />
<missing-glyph horiz-adv-x="1024" />
<glyph unicode="&#x20;" d="" horiz-adv-x="512" />
<glyph unicode="&#xf002;" d="M0 475.428q0 81.714 31.714 156.286t85.714 128.572 128.57 85.714 156.286 31.714 156.286-31.714 128.572-85.714 85.714-128.572 31.714-156.286q0-125.714-70.856-228l196-196q21.144-21.144 21.144-51.428 0-29.714-21.714-51.428t-51.428-21.714q-30.856 0-51.428 21.714l-196 195.428q-102.286-70.856-228-70.856-81.714 0-156.286 31.714t-128.57 85.714-85.714 128.572-31.714 156.286zM146.286 475.428q0-105.714 75.144-180.856t180.856-75.144 180.858 75.144 75.144 180.856-75.144 180.856-180.856 75.142-180.856-75.142-75.144-180.856z" horiz-adv-x="952" />
<glyph unicode="&#xf003;" d="M0 91.428v621.714q0 37.714 26.856 64.57t64.57 26.858h841.144q37.714 0 64.572-26.858t26.856-64.57v-621.714q0-37.714-26.856-64.572t-64.572-26.856h-841.144q-37.714 0-64.57 26.856t-26.856 64.572zM73.144 91.428q0-7.428 5.43-12.856t12.856-5.428h841.144q7.428 0 12.856 5.428t5.428 12.856v438.856q-18.286-20.572-39.428-37.714-153.144-117.714-243.428-193.144-29.144-24.572-47.428-38.286t-49.428-27.714-58.572-14h-1.142q-27.428 0-58.57 14t-49.428 27.714-47.428 38.286q-90.286 75.428-243.43 193.144-21.144 17.144-39.43 37.714v-438.856zM73.144 713.144q0-96 84-162.286 110.286-86.856 229.144-181.144 3.428-2.856 20-16.856t26.286-21.428 25.428-18 28.856-15.714 24.572-5.144h1.144q11.428 0 24.572 5.144t28.856 15.714 25.428 18 26.286 21.428 20 16.856q118.856 94.286 229.144 181.144 30.856 24.572 57.428 66t26.572 75.144v14t-0.286 7.428-1.714 7.144-3.144 5.142-5.144 4.286-8 1.428h-841.144q-7.43 0-12.856-5.428t-5.43-12.856z" />
<glyph unicode="&#xf004;" d="M0 610.286q0 125.714 72.57 196.572t200.57 70.856q35.43 0 72.286-12.286t68.572-33.144 54.572-39.142 43.428-38.858q20.572 20.572 43.428 38.858t54.572 39.142 68.572 33.144 72.286 12.286q128 0 200.572-70.856t72.572-196.572q0-126.286-130.856-257.142l-356-342.856q-10.286-10.286-25.144-10.286t-25.144 10.286l-356.572 344q-5.714 4.572-15.714 14.856t-31.714 37.428-38.856 55.714-30.572 69.144-13.43 78.856z" />
<glyph unicode="&#xf007;" d="M0 148q0 30.286 2 59.144t8 62.286 15.144 62 24.57 55.714 35.43 46.286 48.856 30.572 63.714 11.428q5.144 0 24-12.286t42.57-27.428 61.714-27.428 76.286-12.286 76.286 12.286 61.714 27.428 42.572 27.428 24 12.286q34.856 0 63.714-11.428t48.856-30.57 35.428-46.286 24.572-55.714 15.144-62 8-62.286 2-59.144q0-68.572-41.714-108.286t-110.856-39.714h-499.428q-69.144 0-110.856 39.714t-41.714 108.286zM182.856 658.286q0 90.856 64.286 155.142t155.144 64.286 155.142-64.286 64.286-155.142-64.286-155.144-155.144-64.286-155.144 64.286-64.286 155.144z" horiz-adv-x="806" />
<glyph unicode="&#xf00c;" d="M69.144 420.572q0 22.856 16 38.856l77.714 77.714q16 16 38.856 16t38.856-16l168-168.57 374.858 375.428q16 16 38.856 16t38.856-16l77.714-77.714q16-16 16-38.856t-16-38.856l-491.428-491.428q-16-16-38.856-16t-38.856 16l-284.572 284.572q-16 16-16 38.856z" />
<glyph unicode="&#xf013;" d="M0 376.572v126.856q0 6.856 4.57 13.144t10.856 7.428l106.286 16q8 26.286 22.286 52.572-22.856 32.572-61.144 78.856-5.714 6.856-5.714 13.714 0 5.714 5.144 13.144 14.856 20.572 56.286 61.428t54 40.856q7.43 0 14.856-5.714l78.856-61.144q25.142 13.144 52 21.714 9.142 77.714 16.572 106.286 4 16 20.572 16h126.858q8 0 14-4.856t6.572-12.286l16-105.142q28-9.144 51.428-21.144l81.144 61.144q5.144 5.142 13.714 5.142 7.428 0 14.286-5.714 73.714-68 94.286-97.144 4-4.572 4-12.572 0-6.856-4.572-13.142-8.572-12-29.144-38t-30.856-40.286q14.856-28.572 23.428-56l104.572-16q7.428-1.142 12-7.142t4.572-13.428v-126.856q0-6.856-4.572-13.144t-11.428-7.428l-105.714-16q-10.856-30.856-22.286-52 20-28.572 61.144-78.856 5.714-6.856 5.714-14.286t-5.144-13.144q-15.428-21.144-56.572-61.714t-53.714-40.572q-6.856 0-14.856 5.144l-78.856 61.714q-25.144-13.144-52-21.714-9.144-77.714-16.572-106.286-4-16-20.572-16h-126.856q-8 0-14 4.856t-6.572 12.286l-16 105.144q-28 9.144-51.428 21.144l-80.57-61.144q-5.714-5.144-14.286-5.144-8 0-14.286 6.286-72 65.144-94.286 96-4 5.714-4 13.144 0 6.856 4.57 13.144 8.57 12 29.144 38t30.856 40.286q-15.43 28.572-23.43 56.572l-104.57 15.428q-7.43 1.144-12 7.144t-4.57 13.428zM292.572 438.858q0-60.572 42.856-103.428t103.428-42.856 103.428 42.856 42.856 103.428-42.856 103.428-103.428 42.856-103.428-42.856-42.856-103.428z" />
<glyph unicode="&#xf014;" d="M0 676.572v36.572q0 8 5.142 13.144t13.144 5.142h176.57l40 95.43q8.57 21.144 30.856 36t45.142 14.856h182.856q22.856 0 45.144-14.856t30.856-36l40-95.43h176.572q8 0 13.144-5.142t5.144-13.144v-36.572q0-8-5.144-13.142t-13.144-5.144h-54.856v-541.714q0-47.428-26.856-82t-64.572-34.572h-475.428q-37.714 0-64.57 33.428t-26.856 80.856v544h-54.856q-8 0-13.144 5.142t-5.142 13.144zM146.286 116.572q0-12.572 4-23.144t8.286-15.428 6-4.856h475.428q1.714 0 6 4.856t8.286 15.428 4 23.144v541.714h-512v-541.714zM219.43 201.144v329.142q0 8 5.144 13.144t13.144 5.142h36.57q8 0 13.142-5.142t5.142-13.144v-329.144q0-8-5.142-13.144t-13.144-5.144h-36.57q-8 0-13.144 5.144t-5.144 13.144zM274.286 731.428h256l-27.428 66.858q-4 5.142-9.714 6.286h-181.142q-5.714-1.144-9.714-6.286zM365.714 201.144v329.142q0 8 5.142 13.144t13.144 5.142h36.572q8 0 13.144-5.142t5.142-13.144v-329.144q0-8-5.142-13.144t-13.144-5.144h-36.572q-8 0-13.144 5.144t-5.142 13.144zM512 201.144v329.142q0 8 5.144 13.144t13.144 5.142h36.572q8 0 13.144-5.142t5.144-13.144v-329.144q0-8-5.144-13.144t-13.144-5.144h-36.572q-8 0-13.144 5.144t-5.144 13.144z" horiz-adv-x="806" />
<glyph unicode="&#xf015;" d="M14.856 436.858q0.57 7.714 6.286 12.286l410.856 342.286q18.286 14.856 43.428 14.856t43.428-14.856l139.428-116.572v111.428q0 8 5.144 13.144t13.144 5.142h109.714q8 0 13.144-5.142t5.144-13.144v-233.144l125.144-104q5.714-4.572 6.286-12.286t-4-13.428l-35.428-42.286q-4.572-5.144-12-6.286h-1.714q-7.428 0-12 4l-395.428 329.714-395.428-329.714q-6.856-4.572-13.714-4-7.43 1.144-12 6.286l-35.43 42.286q-4.57 5.714-4 13.428zM146.286 109.714v274.286q0 0.572 0.286 1.714t0.286 1.714l328.572 270.856 328.57-270.856q0.572-1.144 0.572-3.428v-274.286q0-14.856-10.856-25.714t-25.714-10.856h-219.428v219.428h-146.286v-219.428h-219.43q-14.856 0-25.714 10.856t-10.856 25.714z" horiz-adv-x="952" />
<glyph unicode="&#xf01a;" d="M0 438.858q0 119.428 58.856 220.286t159.714 159.714 220.286 58.856 220.286-58.856 159.714-159.714 58.856-220.286-58.856-220.286-159.714-159.714-220.286-58.856-220.286 58.856-159.714 159.714-58.856 220.286zM128 438.858q0-84.572 41.714-156t113.142-113.144 156-41.714 156 41.714 113.144 113.144 41.714 156-41.714 156-113.144 113.144-156 41.714-156-41.714-113.144-113.144-41.714-156zM238.856 427.428q4.57 11.428 17.144 11.428h109.714v201.144q0 8 5.142 13.144t13.144 5.142h109.714q8 0 13.142-5.142t5.142-13.144v-201.144h109.714q8 0 13.144-5.144t5.144-13.144q0-6.856-5.714-13.714l-182.286-182.286q-6.286-5.144-13.142-5.144t-13.144 5.144l-182.856 182.856q-8.57 9.144-4 20z" />
<glyph unicode="&#xf02f;" d="M0 164.572v237.714q0 45.144 32.286 77.428t77.43 32.286h36.57v310.858q0 22.856 16 38.856t38.856 16h384q22.856 0 50.286-11.428t43.428-27.43l86.856-86.856q16-16 27.428-43.428t11.428-50.286v-146.286h36.572q45.144 0 77.428-32.286t32.286-77.428v-237.714q0-7.428-5.428-12.856t-12.856-5.428h-128v-91.428q0-22.856-16-38.856t-38.856-16h-548.572q-22.856 0-38.856 16t-16 38.856v91.428h-128q-7.43 0-12.856 5.428t-5.43 12.856zM219.43 73.144h512v146.286h-512v-146.286zM219.43 438.858h512v219.428h-91.428q-22.856 0-38.856 16t-16 38.856v91.428h-365.714v-365.714zM804.572 402.286q0-14.856 10.856-25.714t25.714-10.856 25.714 10.856 10.856 25.714-10.856 25.714-25.714 10.856-25.714-10.856-10.856-25.714z" horiz-adv-x="952" />
<glyph unicode="&#xf030;" d="M0 146.286v512q0 60.572 42.856 103.428t103.43 42.856h128l29.142 77.714q10.856 28 39.714 48.286t59.142 20.286h292.572q30.286 0 59.144-20.286t39.714-48.286l29.144-77.714h128q60.572 0 103.43-42.856t42.856-103.428v-512q0-60.572-42.856-103.428t-103.428-42.856h-804.572q-60.57 0-103.43 42.856t-42.856 103.428zM292.572 402.286q0-105.714 75.144-180.856t180.856-75.144 180.856 75.144 75.144 180.856-75.144 180.856-180.856 75.144-180.856-75.144-75.144-180.856zM384 402.286q0 68 48.286 116.286t116.286 48.286 116.286-48.286 48.286-116.286-48.286-116.286-116.286-48.286-116.286 48.286-48.286 116.286z" horiz-adv-x="1098" />
<glyph unicode="&#xf03e;" d="M0 91.428v694.856q0 37.714 26.856 64.572t64.57 26.856h914.286q37.714 0 64.57-26.856t26.856-64.572v-694.856q0-37.714-26.856-64.572t-64.572-26.856h-914.286q-37.714 0-64.57 26.856t-26.856 64.572zM73.144 91.428q0-7.428 5.43-12.856t12.856-5.428h914.286q7.428 0 12.856 5.428t5.43 12.856v694.856q0 7.428-5.428 12.856t-12.856 5.428h-914.286q-7.43 0-12.856-5.428t-5.43-12.856v-694.856zM146.286 146.286v109.714l182.858 182.856 91.428-91.428 292.572 292.572 237.714-237.714v-256h-804.572zM146.286 621.714q0 45.714 32 77.714t77.714 32 77.714-32 32-77.714-32-77.714-77.714-32-77.714 32-32 77.714z" horiz-adv-x="1098" />
<glyph unicode="&#xf045;" d="M0 237.714v475.428q0 68 48.286 116.286t116.286 48.286h145.714q7.428 0 12.858-5.43t5.428-12.856q0-15.428-14.856-18.286-44-14.858-76-34.286-5.714-2.286-9.144-2.286h-64q-37.714 0-64.57-26.856t-26.856-64.572v-475.428q0-37.714 26.856-64.572t64.57-26.856h475.428q37.714 0 64.572 26.856t26.856 64.572v122.286q0 10.856 10.286 16.572 16 7.428 30.856 21.144 9.144 9.144 20 4.572 12-5.144 12-16.572v-148q0-68-48.286-116.286t-116.286-48.286h-475.428q-68 0-116.286 48.286t-48.286 116.286zM146.286 475.428q0 28 2 52t8 51.428 16 50.286 26.856 46.572 39.144 42.286 54 35.144 71.142 27.714 91.144 17.428 112.286 6.286h91.428v109.714q0 24 22.286 33.714 7.428 2.858 14.286 2.858 14.856 0 25.714-10.858l219.428-219.428q10.856-10.856 10.856-25.714t-10.856-25.714l-219.428-219.428q-10.286-10.856-25.714-10.856-6.856 0-14.286 2.856-22.286 9.714-22.286 33.714v109.714h-91.428q-184.572 0-250.286-74.856-68-78.286-42.286-270.286 1.714-13.144-11.428-19.428-4.572-1.144-6.858-1.144-9.144 0-14.856 7.428-5.714 8-12 17.714t-22.57 39.144-28.286 56.856-22 65.144-10 69.714z" horiz-adv-x="952" />
<glyph unicode="&#xf069;" d="M70 306.572q7.714 29.428 34 44.286l152 88-152 88q-26.286 14.856-34 44.286t7.144 55.714l36.57 62.856q14.856 26.286 44.286 34t55.714-7.144l152-87.428v175.428q0 29.714 21.714 51.428t51.428 21.714h73.144q29.714 0 51.428-21.714t21.714-51.428v-175.428l152 87.428q26.286 14.856 55.714 7.144t44.286-34l36.572-62.856q14.856-26.286 7.144-55.714t-34-44.286l-152-88 152-88q26.286-14.856 34-44.286t-7.144-55.714l-36.572-62.856q-14.856-26.286-44.286-34t-55.714 7.144l-152 87.428v-175.428q0-29.714-21.714-51.428t-51.428-21.714h-73.144q-29.714 0-51.428 21.714t-21.714 51.428v175.428l-152-87.428q-26.286-14.856-55.714-7.144t-44.286 34l-36.57 62.856q-14.856 26.286-7.144 55.714z" horiz-adv-x="952" />
<glyph unicode="&#xf06a;" d="M0 438.858q0 119.428 58.856 220.286t159.714 159.714 220.286 58.856 220.286-58.856 159.714-159.714 58.856-220.286-58.856-220.286-159.714-159.714-220.286-58.856-220.286 58.856-159.714 159.714-58.856 220.286zM356.572 716.572l9.714-354.856q0-5.714 5.714-10t13.714-4.286h105.714q8 0 13.428 4.286t6 10l10.286 354.856q0 6.856-5.714 10.286-5.714 4.57-13.714 4.57h-125.714q-8 0-13.714-4.57-5.714-3.43-5.714-10.286zM365.714 165.144q0-7.428 5.714-13.144t13.144-5.714h109.714q7.428 0 12.572 5.428t5.142 13.428v108.572q0 8-5.142 13.428t-12.572 5.428h-109.714q-7.428 0-13.144-5.714t-5.714-13.144v-108.572z" />
<glyph unicode="&#xf073;" d="M0 0v731.429q0 29.714 21.714 51.429t51.429 21.714h73.143v54.857q0 37.714 26.857 64.571t64.571 26.857h36.571q37.714 0 64.571-26.857t26.857-64.571v-54.857h219.429v54.857q0 37.714 26.857 64.571t64.571 26.857h36.571q37.714 0 64.571-26.857t26.857-64.571v-54.857h73.143q29.714 0 51.429-21.714t21.714-51.429v-731.429q0-29.714-21.714-51.429t-51.429-21.714h-804.571q-29.714 0-51.429 21.714t-21.714 51.429zM73.143 0h164.571v164.571h-164.571v-164.571zM73.143 201.143h164.571v182.857h-164.571v-182.857zM73.143 420.571h164.571v164.571h-164.571v-164.571zM219.429 694.857q0-7.429 5.429-12.857t12.857-5.429h36.571q7.429 0 12.857 5.429t5.429 12.857v164.571q0 7.429-5.429 12.857t-12.857 5.429h-36.571q-7.429 0-12.857-5.429t-5.429-12.857v-164.571zM274.286 0h182.857v164.571h-182.857v-164.571zM274.286 201.143h182.857v182.857h-182.857v-182.857zM274.286 420.571h182.857v164.571h-182.857v-164.571zM493.714 0h182.857v164.571h-182.857v-164.571zM493.714 201.143h182.857v182.857h-182.857v-182.857zM493.714 420.571h182.857v164.571h-182.857v-164.571zM658.286 694.857q0-7.429 5.429-12.857t12.857-5.429h36.571q7.429 0 12.857 5.429t5.429 12.857v164.571q0 7.429-5.429 12.857t-12.857 5.429h-36.571q-7.429 0-12.857-5.429t-5.429-12.857v-164.571zM713.143 0h164.571v164.571h-164.571v-164.571zM713.143 201.143h164.571v182.857h-164.571v-182.857zM713.143 420.571h164.571v164.571h-164.571v-164.571z" horiz-adv-x="951" />
<glyph unicode="&#xf075;" d="M0 438.858q0 74.286 40.57 142t109.144 116.856 163.43 78 198.856 28.856q139.428 0 257.144-48.856t186.286-133.144 68.57-183.714-68.572-183.714-186.286-133.144-257.144-48.856q-40 0-82.856 4.572-113.144-100-262.858-138.286-28-8-65.144-12.572-9.714-1.142-17.43 5.144t-10 16.572v0.572q-1.714 2.286-0.286 6.856t1.144 5.714 2.57 5.428l3.43 5.144t4 4.856 4.57 5.144q4 4.572 17.714 19.714t19.714 21.714 17.714 22.572 18.57 29.144 15.43 33.714 14.856 43.428q-89.714 50.856-141.43 125.714t-51.714 160.572z" />
<glyph unicode="&#xf081;" d="M0 164.572v548.572q0 68 48.286 116.286t116.286 48.286h548.572q68 0 116.286-48.286t48.286-116.286v-548.572q0-68-48.286-116.286t-116.286-48.286h-548.572q-68 0-116.286 48.286t-48.286 116.286zM146.286 236.572q84.57-53.714 184-53.714 64 0 120 20.286t96 54.286 68.856 78.286 42.856 92.572 14 96.286q0 10.286-0.572 15.428 36 25.714 60 62.286-32-14.286-69.144-19.428 38.856 22.856 53.144 66.856-37.144-21.714-76.572-29.144-34.856 37.714-87.428 37.714-49.714 0-84.856-35.142t-35.144-84.856q0-16.572 2.858-27.428-73.714 4-138.286 37.144t-109.714 88.572q-16.57-28.572-16.57-60.572 0-65.144 52-100-26.856 0.572-57.144 14.856v-1.144q0-42.856 28.57-76.286t70.286-41.428q-16.57-4.572-29.144-4.572-7.43 0-22.286 2.286 12-36 42.57-59.428t69.43-24q-66.286-51.428-149.144-51.428-14.856 0-28.57 1.714z" />
<glyph unicode="&#xf082;" d="M0 164.572v548.572q0 68 48.286 116.286t116.286 48.286h548.572q68 0 116.286-48.286t48.286-116.286v-548.572q0-68-48.286-116.286t-116.286-48.286h-109.714v347.428h116l17.144 128h-133.144v81.714q0 30.858 16 47.43t54.856 16.572l75.428 0.572v118.286q-54.856 5.144-102.856 5.144-77.714 0-124.572-46t-46.856-128.856v-94.856h-128v-128h128v-347.428h-310.858q-68 0-116.286 48.286t-48.286 116.286z" />
<glyph unicode="&#xf087;" d="M0 146.286v365.714q0 30.286 21.428 51.714t51.714 21.428h156.57q20.57 13.714 78.286 88.572 33.144 42.856 61.144 73.144 13.714 14.286 20.286 48.856t17.428 72.286 35.43 61.714q22.286 21.144 51.428 21.144 48 0 86.286-18.572t58.286-58 20-106.286q0-53.142-27.428-109.714h100.572q59.428 0 102.856-43.428t43.428-102.286q0-50.856-28-93.142 5.144-18.856 5.144-39.428 0-44-21.714-82.286 1.714-12 1.714-24.572 0-57.714-34.286-101.714 0.572-79.428-48.572-125.428t-129.714-46h-73.714q-54.856 0-108.286 12.856t-123.714 37.428q-66.286 22.856-78.856 22.856h-164.57q-30.286 0-51.714 21.428t-21.428 51.714zM73.144 182.858q0-14.856 10.856-25.714t25.714-10.856 25.714 10.856 10.856 25.714-10.856 25.714-25.714 10.856-25.714-10.856-10.856-25.714zM219.43 146.286h18.286q7.43 0 18-1.714t18.856-3.714 21.714-6.286 20-6.572 20.286-7.144 16.572-6q120.572-41.714 195.428-41.714h69.144q109.714 0 109.714 95.428 0 14.856-2.856 32 17.144 9.144 27.144 30t10 42-10.286 39.428q30.286 28.572 30.286 68 0 14.286-5.714 31.714t-14.286 27.144q18.286 0.572 30.572 26.856t12.286 46.286q0 29.144-22.286 51.144t-50.856 22h-201.144q0 33.144 27.428 91.144t27.428 91.714q0 56-18.286 82.858t-73.144 26.856q-14.856-14.856-21.714-48.572t-17.428-71.714-34-62.57q-12.572-13.144-44-52-2.286-2.858-13.142-17.144t-18-23.428-19.714-24.286-22.858-25.142-22-20.286-22.856-15.428-20.286-5.142h-18.286v-365.714z" />
<glyph unicode="&#xf08c;" d="M0 164.572v548.572q0 68 48.286 116.286t116.286 48.286h548.572q68 0 116.286-48.286t48.286-116.286v-548.572q0-68-48.286-116.286t-116.286-48.286h-548.572q-68 0-116.286 48.286t-48.286 116.286zM127.43 661.714q0-29.142 20.286-48.856t52.856-19.714h0.57q33.714 0 54.286 19.714t20.57 48.856q-0.572 29.714-20.57 49.144t-53.144 19.428-54-19.428-20.856-49.144zM135.43 142.858h132v396.572h-132v-396.572zM340 142.858h132v221.714q0 21.714 4 32 8.572 20 25.714 34t42.286 14q66.286 0 66.286-89.714v-212h132v227.428q0 88-41.714 133.144t-110.286 45.144q-77.714 0-119.428-66.856h1.142v57.714h-132q1.714-37.714 0-396.572z" />
<glyph unicode="&#xf091;" d="M0 603.428v73.144q0 22.856 16 38.856t38.856 16h164.57v54.856q0 37.714 26.856 64.572t64.57 26.856h329.144q37.714 0 64.572-26.856t26.856-64.572v-54.856h164.572q22.856 0 38.856-16t16-38.856v-73.144q0-40.572-23.714-81.714t-64-74.286-98.856-55.714-123.144-25.428q-24-30.856-54.286-54.286-21.714-19.428-30-41.428t-8.286-51.144q0-30.856 17.428-52t55.714-21.144q42.856 0 76.286-26t33.428-65.428v-36.572q0-8-5.144-13.144t-13.144-5.144h-475.428q-8 0-13.144 5.144t-5.144 13.144v36.572q0 39.428 33.43 65.428t76.286 26q38.286 0 55.714 21.144t17.428 52q0 29.144-8.286 51.144t-30 41.428q-30.286 23.428-54.286 54.286-64.57 2.856-123.144 25.428t-98.856 55.714-64 74.286-23.714 81.714zM73.144 603.428q0-44.572 54-92.572t134.57-64.572q-42.286 92.572-42.286 212h-146.286v-54.856zM689.144 446.286q80.572 16.572 134.572 64.572t54 92.572v54.856h-146.286q0-119.428-42.286-212z" horiz-adv-x="952" />
<glyph unicode="&#xf095;" d="M0 684q0 52.572 29.144 106.286 32 57.714 60.57 69.714 14.286 6.286 39.144 12t40.286 5.714q8 0 12-1.714 10.286-3.428 30.286-43.428 6.286-10.856 17.144-30.856t20-36.286 17.714-30.57q1.714-2.286 10-14.286t12.286-20.286 4-16.286q0-11.428-16.286-28.572t-35.43-31.428-35.43-30.286-16.286-26.286q0-5.144 2.856-12.856t4.856-11.714 8-13.714 6.57-10.856q43.43-78.286 99.43-134.286t134.286-99.428q1.142-0.572 10.858-6.572t13.714-8 11.714-4.856 12.856-2.856q10.286 0 26.286 16.286t30.286 35.428 31.428 35.428 28.572 16.286q8 0 16.286-4t20.286-12.286 14.286-10q14.286-8.572 30.572-17.714t36.286-20 30.856-17.144q40-20 43.428-30.286 1.714-4 1.714-12 0-15.428-5.714-40.286t-12-39.144q-12-28.572-69.714-60.572-53.714-29.144-106.286-29.144-15.428 0-30 2t-32.856 7.144-27.144 8.286-31.714 11.714-28 10.286q-56 20-100 47.428-73.142 45.144-151.144 123.144t-123.144 151.144q-27.43 44-47.43 100-1.714 5.142-10.286 28t-11.714 31.714-8.286 27.144-7.142 32.856-2 30z" horiz-adv-x="806" />
<glyph unicode="&#xf098;" d="M0 164.572v548.572q0 68 48.286 116.286t116.286 48.286h548.572q68 0 116.286-48.286t48.286-116.286v-548.572q0-68-48.286-116.286t-116.286-48.286h-548.572q-68 0-116.286 48.286t-48.286 116.286zM146.286 590.286q0-9.144 1.43-19.428t2.856-17.428 5.144-18.856 5.714-16.856 7.144-18.856 6.286-17.144q34.286-93.714 123.714-183.144t183.144-123.714q3.428-1.144 17.144-6.286t18.856-7.144 16.856-5.714 18.856-5.144 17.428-2.856 19.428-1.428q32.572 0 74.572 19.428t54 45.714q12.572 30.286 12.572 57.714 0 6.286-1.144 9.144-1.714 4.572-22 16.856t-50.572 28.286l-30.286 16.572q-2.856 1.714-10.856 7.428t-14.286 8.572-12 2.856q-10.286 0-26.856-18.572t-32.572-37.428-25.144-18.856q-4 0-9.428 2t-8.856 3.714-9.714 5.428-8 4.856q-56.57 31.428-97.43 72.286t-72.286 97.428q-1.142 1.714-4.858 8t-5.428 9.714-3.714 8.858-2 9.428q0 7.428 11.714 19.144t25.714 22 25.714 22.572 11.714 20.856q0 5.714-2.858 12t-8.572 14.286-7.428 10.858q-1.714 3.428-8.572 16.286t-14.286 26-15.142 27.144-14.286 23.144-9.428 10.286-9.142 1.144q-27.43 0-57.714-12.572-26.286-12-45.714-54t-19.43-74.57z" />
<glyph unicode="&#xf099;" d="M25.144 156q20-2.286 44.57-2.286 128.57 0 229.142 78.856-60 1.144-107.43 36.856t-65.144 91.144q18.856-2.856 34.856-2.856 24.57 0 48.57 6.286-64 13.144-106 63.714t-42 117.428v2.286q38.856-21.714 83.43-23.428-37.714 25.144-60 65.714t-22.286 88q0 50.286 25.144 93.144 69.144-85.144 168.286-136.286t212.286-56.856q-4.572 21.714-4.572 42.286 0 76.572 54 130.572t130.572 54q80 0 134.856-58.286 62.286 12 117.144 44.572-21.144-65.714-81.144-101.714 53.144 5.714 106.286 28.572-38.286-56-92.572-95.43 0.572-8 0.572-24 0-74.286-21.714-148.286t-66-142-105.428-120.286-147.428-83.428-184.572-31.144q-154.856 0-283.428 82.856z" horiz-adv-x="952" />
<glyph unicode="&#xf09a;" d="M54.286 433.714v169.144h145.714v124.57q0 106.286 59.428 164.858t158.286 58.572q84 0 130.286-6.858v-150.856h-89.714q-49.142 0-66.286-20.572t-17.144-61.714v-108h167.428l-22.286-169.144h-145.144v-433.714h-174.856v433.714h-145.714z" horiz-adv-x="586" />
<glyph unicode="&#xf0a3;" d="M1.144 321.714q-5.714 24 11.43 40l78.856 77.144-78.856 77.144q-17.144 16-11.43 40 6.858 23.428 29.714 29.144l107.43 27.428-30.286 106.286q-6.856 23.43 10.856 40 16.57 17.714 40 10.856l106.286-30.286 27.428 107.428q5.714 23.43 29.144 29.144 23.428 6.856 40-10.856l77.144-79.43 77.144 79.43q16.572 17.144 40 10.856 23.428-5.714 29.144-29.144l27.428-107.428 106.286 30.286q23.428 6.858 40-10.856 17.714-16.57 10.856-40l-30.286-106.286 107.428-27.428q22.856-5.714 29.714-29.144 5.714-24-11.428-40l-78.856-77.144 78.856-77.144q17.144-16 11.428-40-6.856-23.428-29.714-29.144l-107.428-27.428 30.286-106.286q6.856-23.428-10.856-40-16.572-17.714-40-10.856l-106.286 30.286-27.428-107.428q-5.714-22.856-29.144-29.714-6.856-1.144-10.856-1.144-17.714 0-29.144 12.572l-77.144 78.856-77.144-78.856q-16-17.144-40-11.428-23.428 6.286-29.144 29.714l-27.428 107.428-106.286-30.286q-23.43-6.856-40 10.856-17.714 16.572-10.856 40l30.286 106.286-107.43 27.428q-22.856 5.714-29.714 29.144z" />
<glyph unicode="&#xf0ac;" d="M0 438.858q0 119.428 58.856 220.286t159.714 159.714 220.286 58.856 220.286-58.856 159.714-159.714 58.856-220.286-58.856-220.286-159.714-159.714-220.286-58.856-220.286 58.856-159.714 159.714-58.856 220.286zM129.144 632.572q4-4 6.856-4.572 2.286-0.572 2.856-5.142t1.43-6.286 6.57 1.714q5.144-4.572 1.714-10.856 0.57 0.572 25.144-15.428 10.856-9.714 12-12 1.714-6.286-5.714-10.286-0.57 1.144-5.144 5.144t-5.144 2.286q-1.714-2.856 0.286-10.572t6-7.142q-4 0-5.43-9.144t-1.43-20.286-0.57-13.428l1.144-0.572q-1.714-6.856 3.144-19.714t12.286-11.144q-7.43-1.714 11.43-24.572 3.43-4.572 4.57-5.144 1.714-1.142 6.856-4.286t8.57-5.714 5.714-6q2.286-2.856 5.714-12.856t8-13.428q-1.144-3.428 5.43-11.428t6-13.144q-0.57 0-1.43-0.572t-1.43-0.572q1.714-4 8.856-8t8.856-7.428q0.572-1.714 1.142-5.714t1.714-6.286 4.572-1.144q1.142 11.428-13.714 35.428-8.57 14.286-9.714 16.572-1.714 2.856-3.144 8.856t-2.57 8.286q1.144 0 3.43-0.856t4.856-2 4.286-2.286 1.144-1.714q-1.714-4 1.144-10t6.858-10.572 9.714-10.856 6.858-7.428q3.428-3.428 8-11.144t0-7.714q5.142 0 11.428-5.714t9.714-11.428q2.858-4.572 4.572-14.856t2.858-13.714q1.142-4 4.858-7.714t7.142-5.428l9.142-4.572t7.428-4q2.858-1.144 10.572-6t12.286-6.572q5.714-2.286 9.142-2.286t8.286 1.428 7.714 2q8.572 1.144 16.572-8.572t12-12q20.572-10.856 31.428-6.286-1.142-0.572 0.286-4.286t4.572-8.856 5.142-8.286 3.142-4.856q2.858-3.428 10.286-8.572t10.286-8.572q3.428 2.286 4 5.144-1.714-4.572 4-11.428t10.286-5.714q8 1.714 8 18.286-17.714-8.572-28 10.286 0 0.572-1.428 3.144t-2.286 4.856-1.428 4.856 0 4.286 2.858 1.714q5.142 0 5.714 2t-1.142 7.144-2.286 7.428q-0.572 4.572-6.286 11.428t-6.858 8.572q-2.858-5.144-9.142-4.572t-9.144 5.144q0-0.572-0.858-3.144t-0.858-3.714q-7.428 0-8.572 0.572 0.572 1.714 1.428 10t2 12.856q0.572 2.286 3.142 6.856t4.286 8.286 2.286 7.144-2.572 5.428-10 1.428q-10.858-0.572-14.858-11.428-0.572-1.714-1.714-6t-2.858-6.572-5.142-4q-4-1.714-13.714-1.144t-13.714 2.856q-7.428 4.572-12.858 16.572t-5.428 21.144q0 5.714 1.428 15.144t1.714 14.286-3.142 14q1.714 1.144 5.142 5.428t5.714 6q1.142 0.572 2.572 0.856t2.572 0 2.286 0.856 1.714 3.428q-0.572 0.572-2.286 1.714-1.714 1.714-2.286 1.714 4-1.714 16.286 0.856t15.714-0.856q8.572-6.286 12.572 1.144 0 0.572-1.428 5.428t-0.286 7.714q2.858-15.428 16.572-5.144 1.714-1.714 8.858-2.856t10-2.856q1.714-1.144 4-3.144t3.142-2.572 2.858 0.286 4.858 3.714q5.714-8 6.858-13.714 6.286-22.856 10.856-25.144 4-1.714 6.286-1.144t2.572 5.428 0 8-0.858 7.144l-0.572 4.572v10.286l-0.572 4.572q-8.572 1.714-10.572 6.856t0.858 10.572 8.572 10.572q0.572 0.572 4.572 2t8.858 3.714 7.144 4.572q12 10.858 8.572 20 4 0 6.286 5.144-0.572 0-2.856 1.714t-4.286 2.858-2.572 1.142q5.144 2.858 1.144 9.144 2.856 1.714 4.286 6.286t4.286 5.714q5.144-6.858 12-1.144 4 4.572 0.572 9.144 2.856 4 11.714 6t10.572 5.428q4-1.144 4.572 1.142t0.572 6.858 1.714 6.856q2.286 2.858 8.572 5.144t7.428 2.856l9.714 6.286q1.714 2.286 0 2.286 10.286-1.142 17.714 6.286 5.714 6.286-3.428 11.428 1.714 3.428-1.714 5.428t-8.572 3.142q1.714 0.572 6.572 0.286t6 0.856q8.572 5.714-4 9.144-9.714 2.856-24.572-6.858-1.144-0.572-5.428-5.428t-7.714-5.428q1.144 0 2.572 2.858t2.856 6.286 2 4q3.428 4 12.572 8.572 8 3.428 29.714 6.858 19.428 4.572 29.144-6.286-1.144 1.144 5.428 7.428t8.286 6.858q1.714 1.142 8.572 2.572t8.572 4.286l1.144 12.572q-6.856-0.572-10 4t-3.714 12q0-1.142-3.428-4.572 0 4-2.572 4.572t-6.572-0.572-5.144-0.572q-5.714 1.714-8.572 4.286t-4.572 9.428-2.286 8.572q-1.144 2.856-5.428 6t-5.428 6q-0.572 1.142-1.428 3.142t-1.714 3.714-2.286 3.142-3.144 1.428-4-2.856-4.286-5.714-2.572-2.856q-1.714 1.142-3.428 0.856t-2.572-0.572-2.572-1.714-2.856-2q-1.714-1.144-4.856-1.714t-4.856-1.142q8.572 2.856-0.572 6.286-5.714 2.286-9.144 1.714 5.144 2.286 4.286 6.856t-4.856 8h2.856q-0.572 2.286-4.856 4.856t-10 4.858-7.428 3.428q-4.572 2.856-19.428 5.428t-18.856 0.286q-2.856-3.428-2.572-6t2.286-8 2-7.144q0.572-3.428-3.144-7.428t-3.714-6.856q0-4 8-8.856t5.714-12.286q-1.714-4.572-9.144-9.142t-9.144-6.858q-2.856-4.572-0.856-10.572t6-9.428q1.144-1.142 0.856-2.286t-2-2.572-3.144-2.286-3.714-2l-1.714-1.142q-6.286-2.858-11.714 3.428t-7.714 14.856q-4 14.286-9.144 17.144-13.144 4.572-16.572-0.572-2.858 7.428-23.428 14.856-14.286 5.142-33.144 2.286 3.428 0.572 0 8.572-4 8.572-10.856 6.858 1.714 3.428 2.286 10t0.572 7.714q1.714 7.43 6.858 13.144 0.572 0.572 4 4.856t5.428 7.714 0.286 3.428q20-2.286 28.572 6.286 2.858 2.856 6.572 9.714t6 9.714q5.142 3.43 8 3.144t8.286-3.144 8.286-2.856q8-0.57 8.858 6.286t-4.286 11.428q6.858-0.572 1.714 9.714-2.858 4-4.572 5.142-6.858 2.286-15.428-2.856-4.572-2.286 1.142-4.572-0.572 0.572-5.428-6t-9.428-10-9.142 2.856q-0.572 0.572-3.142 7.714t-5.428 7.714q-4.572 0-9.142-8.572 1.714 4.572-6.286 8.572t-13.714 4.57q10.856 6.856-4.572 15.43-4 2.286-11.714 2.856t-11.142-2.286q-2.858-4-3.142-6.57t2.858-4.572 6-3.144 6.572-2.286 4.858-1.714q8-5.714 4.572-8-1.142-0.572-4.858-2t-6.572-2.572-3.428-2.286q-1.714-2.286 0-8t-1.142-8q-2.858 2.856-5.142 10t-4 9.428q4-5.144-14.286-3.428l-5.714 0.572q-2.286 0-9.144-1.144t-11.714-0.572-7.714 4.572q-2.286 4.57 0 11.428 0.572 2.286 2.286 1.144-2.286 1.714-6.286 5.428t-5.714 4.856q-26.286-8.57-53.714-23.428 3.428-0.572 6.858 0.572 2.858 1.144 7.428 3.714t5.714 3.144q19.428 8 24 4l2.858 2.856q8-9.144 11.428-14.286-4 2.286-17.142 0.572-11.428-3.43-12.572-6.858 4-6.856 2.858-10.286-2.286 1.714-6.572 5.714t-8.286 6.286-8.572 2.856q-9.144 0-12.572-0.572-83.43-45.714-134.286-126.856zM501.142 88q0-3.428 1.142-9.144 117.714 20.572 200.572 108-1.714 1.714-7.144 2.572t-7.144 2q-10.286 4-13.714 4.572 0.572 4-1.428 7.428t-4.572 5.144-7.144 4.572-6.286 4q-1.144 1.144-4 3.428t-4 3.144-4.286 2.572-4.856 1.144-5.714-0.572l-1.714-0.572q-1.714-0.572-3.144-1.428t-3.144-1.714-2.286-1.714 0-1.428q-12 9.714-20.572 12.572-2.856 0.572-6.286 3.144t-6 4-5.714 0.856-6.572-4q-2.856-2.856-3.428-8.572t-1.144-7.428q-4 2.856 0 10t1.144 10.572q-1.714 3.428-6 2.572t-6.856-2.572-6.572-4.856-5.144-3.714-4.856-3.144-4.856-4.286q-1.714-2.286-3.428-6.856t-2.856-6.286q-1.144 2.286-6.572 3.714t-5.428 3.144q1.144-5.714 2.286-20t2.856-21.714q4-17.714-6.856-27.428-15.428-14.286-16.572-22.856-2.286-12.572 6.858-14.856 0-4-4.572-11.714t-4-12.286z" />
<glyph unicode="&#xf0c0;" d="M0 456.572q0 201.714 70.856 201.714 3.43 0 24.856-12t55.714-24.286 68-12.286q38.286 0 76 13.144-2.858-21.144-2.858-37.714 0-79.428 46.286-146.286-92.57-2.856-151.43-73.144h-76.57q-46.856 0-78.856 23.144t-32 67.714zM73.144 804.572q0 60.572 42.856 103.43t103.43 42.856 103.43-42.856 42.858-103.43-42.856-103.428-103.43-42.856-103.43 42.856-42.856 103.428zM146.286 74.858q0 30.286 2 59.144t8 62.286 15.144 62 24.57 55.714 35.43 46.286 48.856 30.572 63.714 11.428q5.714 0 24.572-12.286t41.714-27.428 61.142-27.428 77.144-12.286 77.144 12.286 61.144 27.428 41.714 27.428 24.572 12.286q34.856 0 63.714-11.428t48.856-30.572 35.428-46.286 24.572-55.714 15.144-62 8-62.286 2-59.144q0-68.572-41.714-108.286t-110.856-39.714h-499.428q-69.144 0-110.856 39.714t-41.714 108.286zM329.142 585.144q0 90.858 64.286 155.144t155.144 64.286 155.144-64.286 64.286-155.144-64.286-155.142-155.144-64.286-155.144 64.286-64.286 155.144zM731.428 804.572q0 60.572 42.856 103.43t103.428 42.856 103.428-42.856 42.858-103.43-42.856-103.428-103.428-42.856-103.428 42.856-42.856 103.428zM758.286 438.858q46.286 66.856 46.286 146.286 0 16.572-2.856 37.714 37.714-13.144 76-13.144 33.714 0 68 12.286t55.714 24.286 24.856 12q70.856 0 70.856-201.714 0-44.57-32-67.714t-78.856-23.144h-76.572q-58.856 70.286-151.428 73.144z" horiz-adv-x="1098" />
<glyph unicode="&#xf0d2;" d="M0 438.857q0 119.429 58.857 220.286t159.714 159.714 220.286 58.857 220.286-58.857 159.714-159.714 58.857-220.286-58.857-220.286-159.714-159.714-220.286-58.857q-63.429 0-124.571 18.286 33.714 53.143 44.571 93.714 5.143 19.429 30.857 120.571 11.429-22.286 41.714-38.571t65.143-16.286q69.143 0 123.429 39.143t84 107.714 29.714 154.286q0 65.143-34 122.286t-98.571 93.143-145.714 36q-60 0-112-16.571t-88.286-44-62.286-63.143-38.286-74-12.286-76.571q0-59.429 22.857-104.571t66.857-63.429q17.143-6.857 21.714 11.429 1.143 4 4.571 17.714t4.571 17.143q3.429 13.143-6.286 24.571-29.143 34.857-29.143 86.286 0 86.286 59.714 148.286t156.286 62q86.286 0 134.571-46.857t48.286-121.714q0-97.143-39.143-165.143t-100.286-68q-34.857 0-56 24.857t-13.143 59.714q4.571 20 15.143 53.429t17.143 58.857 6.571 43.143q0 28.571-15.429 47.429t-44 18.857q-35.429 0-60-32.571t-24.571-81.143q0-41.714 14.286-69.714l-56.571-238.857q-9.714-40-7.429-101.143-117.714 52-190.286 160.571t-72.571 241.714z" />
<glyph unicode="&#xf0d3;" d="M0 164.571v548.571q0 68 48.286 116.286t116.286 48.286h548.571q68 0 116.286-48.286t48.286-116.286v-548.571q0-68-48.286-116.286t-116.286-48.286h-414.286q48.571 69.714 61.714 120 5.143 19.429 30.286 119.429 12-22.286 42-38.286t64.286-16q103.429 0 168.857 84.286t65.429 213.429q0 48-20 92.857t-55.143 79.429-87.143 55.429-112.571 20.857q-59.429 0-111.143-16.286t-87.429-43.714-61.429-62.571-38-73.143-12.286-75.714q0-58.286 22.571-102.857t66.571-62.857q7.429-2.857 13.429 0t8.286 10.857q5.714 25.143 8.571 34.857 3.429 13.143-6.286 24-28.571 35.429-28.571 85.714 0 85.714 59.143 146.571t154.571 60.857q85.143 0 132.857-46.286t47.714-120q0-96-38.571-163.429t-99.143-67.429q-34.286 0-55.429 24.857t-13.143 59.143q4.571 19.429 15.143 52.857t16.857 58.286 6.286 42.571q0 28-15.143 46.571t-43.143 18.571q-34.857 0-59.143-32.286t-24.286-79.714q0-41.143 13.714-69.143l-56-236.571q-13.714-57.143-4-145.143h-104.571q-68 0-116.286 48.286t-48.286 116.286z" />
<glyph unicode="&#xf0d4;" d="M0 164.572v548.572q0 68 48.286 116.286t116.286 48.286h548.572q68 0 116.286-48.286t48.286-116.286v-548.572q0-68-48.286-116.286t-116.286-48.286h-548.572q-68 0-116.286 48.286t-48.286 116.286zM157.714 249.714q0-24.572 10.57-44.286t27.714-32.286 39.43-21.144 44.286-12 43.714-3.428q34.286 0 68.856 8.856t64.856 26.286 49.144 47.144 18.856 66.856q0 28-11.428 51.144t-28 38-33.144 27.144-28 25.144-11.428 25.428 8.856 24.286 21.428 22.572 25.144 24 21.428 34 8.856 47.144q0 34.286-12.856 56.856t-41.428 51.714h47.428l50.286 36.572h-151.428q-48.572 0-92-18.286t-72.856-56-29.43-87.428q0-53.144 36.856-88.286t90.57-35.142q12.572 0 24.572 1.714-7.428-16.572-7.428-30.856 0-25.144 22.858-53.714-100-6.856-146.856-36-26.856-16.572-43.144-41.714t-16.286-54.286zM225.714 266.286q0 26.286 14.286 45.714t37.428 29.428 46.856 14.286 48.286 4.286q11.428 0 17.714-1.144 1.142-0.572 13.144-9.428t14.856-10.856 13.144-10.286 14-12.572 10.856-12.856 9.714-14.856 5.142-15.144 2.572-18q0-43.428-33.428-64.286t-79.714-20.856q-23.428 0-46 5.428t-43.142 16.286-33.144 30.286-12.57 44.572zM264 626.858q0 34.856 18.286 59.428t52.57 24.572q30.286 0 53.428-25.714t33.144-57.714 10-61.142q0-34.286-18.856-56.856t-52.572-22.572q-30.286 0-53.144 24.286t-32.856 55.144-10 60.572zM548.572 457.144h73.144v-91.428h36.572v91.428h73.144v36.572h-73.144v73.144h-36.572v-73.144h-73.144v-36.572z" />
<glyph unicode="&#xf0d5;" d="M18.286 177.144q0 46.286 25.43 85.714t67.714 65.714q74.856 46.856 230.856 57.144-18.286 24-27.142 42.286t-8.856 41.714q0 20.572 12 48.572-26.286-2.286-38.856-2.286-84.57 0-142.57 55.144t-58 139.714q0 46.858 20.57 90.858t56.57 74.856q44 37.714 104.286 56t124.286 18.286h238.858l-78.856-50.286h-74.856q42.286-36 64-76t21.714-91.43q0-41.142-14-74t-33.714-53.144-39.714-37.144-34-35.144-14-37.714q0-20.572 18.286-40.286t44.286-38.856 51.714-42 44-59.428 18.286-81.144q0-51.428-27.428-98.856-41.144-69.714-120.572-102.572t-170.286-32.856q-75.43 0-140.856 23.714t-98 78.572q-21.144 34.286-21.144 74.856zM124.57 203.428q0-40 20-70.572t52.286-47.428 68-25.144 72.856-8.286q33.144 0 63.714 7.428t56.57 22.286 41.714 41.714 15.714 62.286q0 14.286-4 28t-8.286 24-15.428 23.714-16.858 20-22 19.714-20.856 16.572-23.714 17.144-20.858 14.856q-9.144 1.144-27.428 1.144-30.286 0-60-4t-61.43-14.286-55.43-26.286-39.144-42.572-15.43-60.286zM185.144 771.428q0-26.286 5.714-55.714t18-58.856 29.714-52.856 42.856-38.286 55.144-14.856q21.714 0 44.572 9.428t37.714 24.856q30.286 32.572 30.286 90.856 0 33.142-9.714 71.428t-27.714 74-48.286 59.144-66.858 23.428q-24 0-47.144-11.144t-37.43-30q-26.856-33.714-26.856-91.428zM619.428 490.858v61.714h121.144v124h60v-124h121.714v-61.714h-121.714v-125.144h-60v125.144h-121.144z" horiz-adv-x="952" />
<glyph unicode="&#xf0d7;" d="M0 548.572q0 14.858 10.856 25.714t25.714 10.856h512q14.856 0 25.714-10.856t10.856-25.714-10.856-25.714l-256-256q-10.856-10.856-25.714-10.856t-25.714 10.856l-256 256q-10.856 10.856-10.856 25.714z" horiz-adv-x="586" />
<glyph unicode="&#xf0d8;" d="M0 256q0 14.856 10.856 25.714l256 256q10.856 10.856 25.714 10.856t25.714-10.856l256-256q10.856-10.856 10.856-25.714t-10.856-25.714-25.714-10.856h-512q-14.856 0-25.714 10.856t-10.856 25.714z" horiz-adv-x="586" />
<glyph unicode="&#xf0d9;" d="M36.57 438.858q0 14.856 10.856 25.714l256 256q10.856 10.856 25.714 10.856t25.714-10.856 10.856-25.714v-512q0-14.856-10.856-25.714t-25.714-10.856-25.714 10.856l-256 256q-10.856 10.856-10.856 25.714z" horiz-adv-x="366" />
<glyph unicode="&#xf0da;" d="M0 182.858v512q0 14.856 10.856 25.714t25.714 10.856 25.714-10.856l256-256q10.856-10.856 10.856-25.714t-10.856-25.714l-256-256q-10.856-10.856-25.714-10.856t-25.714 10.856-10.856 25.714z" horiz-adv-x="366" />
<glyph unicode="&#xf0e0;" d="M0 91.428v453.714q25.144-28 57.714-49.714 206.858-140.572 284-197.144 32.57-24 52.858-37.428t54-27.428 62.856-14h1.144q29.144 0 62.856 14t54 27.428 52.856 37.428q97.144 70.286 284.572 197.144 32.572 22.286 57.144 49.714v-453.714q0-37.714-26.856-64.572t-64.572-26.856h-841.144q-37.714 0-64.57 26.856t-26.856 64.572zM0 700.572q0 44.572 23.714 74.286t67.714 29.714h841.144q37.144 0 64.286-26.856t27.144-64.572q0-45.142-28-86.286t-69.714-70.286q-214.856-149.142-267.428-185.714-5.714-4-24.286-17.428t-30.856-21.714-29.714-18.572-32.856-15.428-28.572-5.144h-1.142q-13.142 0-28.572 5.144t-32.858 15.428-29.714 18.572-30.858 21.714-24.286 17.428q-52 36.572-149.714 104.286t-117.144 81.43q-35.43 24-66.856 66t-31.428 78z" />
<glyph unicode="&#xf100;" d="M25.714 402.286q0 7.428 5.714 13.144l266.286 266.286q5.714 5.714 13.142 5.714t13.144-5.714l28.572-28.572q5.714-5.714 5.714-13.142t-5.714-13.144l-224.57-224.572 224.57-224.572q5.714-5.714 5.714-13.144t-5.714-13.144l-28.572-28.572q-5.714-5.714-13.144-5.714t-13.144 5.714l-266.286 266.286q-5.714 5.714-5.714 13.144zM245.144 402.286q0 7.428 5.714 13.144l266.286 266.286q5.714 5.714 13.144 5.714t13.144-5.714l28.572-28.572q5.714-5.714 5.714-13.142t-5.714-13.144l-224.572-224.572 224.572-224.572q5.714-5.714 5.714-13.144t-5.714-13.144l-28.572-28.572q-5.714-5.714-13.144-5.714t-13.144 5.714l-266.286 266.286q-5.714 5.714-5.714 13.144z" horiz-adv-x="586" />
<glyph unicode="&#xf101;" d="M7.43 164.572q0 7.428 5.714 13.144l224.57 224.572-224.57 224.572q-5.714 5.714-5.714 13.144t5.714 13.144l28.57 28.572q5.714 5.714 13.144 5.714t13.144-5.714l266.286-266.286q5.714-5.714 5.714-13.144t-5.714-13.144l-266.286-266.286q-5.714-5.714-13.144-5.714t-13.144 5.714l-28.572 28.572q-5.714 5.714-5.714 13.144zM226.856 164.572q0 7.428 5.714 13.144l224.57 224.572-224.57 224.572q-5.714 5.714-5.714 13.144t5.714 13.144l28.57 28.572q5.714 5.714 13.142 5.714t13.144-5.714l266.286-266.286q5.714-5.714 5.714-13.144t-5.714-13.144l-266.286-266.286q-5.714-5.714-13.142-5.714t-13.144 5.714l-28.57 28.572q-5.714 5.714-5.714 13.144z" horiz-adv-x="586" />
<glyph unicode="&#xf102;" d="M44 201.144q0 7.428 5.714 13.144l266.286 266.286q5.714 5.714 13.144 5.714t13.144-5.714l266.286-266.286q5.714-5.714 5.714-13.144t-5.714-13.144l-28.572-28.572q-5.714-5.714-13.144-5.714t-13.144 5.714l-224.572 224.572-224.57-224.572q-5.714-5.714-13.144-5.714t-13.144 5.714l-28.57 28.572q-5.714 5.714-5.714 13.144zM44 420.572q0 7.428 5.714 13.144l266.286 266.286q5.714 5.714 13.144 5.714t13.144-5.714l266.286-266.286q5.714-5.714 5.714-13.144t-5.714-13.144l-28.572-28.572q-5.714-5.714-13.144-5.714t-13.144 5.714l-224.572 224.572-224.57-224.572q-5.714-5.714-13.144-5.714t-13.144 5.714l-28.57 28.572q-5.714 5.714-5.714 13.144z" horiz-adv-x="658" />
<glyph unicode="&#xf103;" d="M44 457.144q0 7.428 5.714 13.144l28.57 28.572q5.714 5.714 13.144 5.714t13.144-5.714l224.57-224.572 224.57 224.572q5.714 5.714 13.144 5.714t13.144-5.714l28.572-28.572q5.714-5.714 5.714-13.144t-5.714-13.144l-266.286-266.286q-5.714-5.714-13.142-5.714t-13.144 5.714l-266.286 266.286q-5.714 5.714-5.714 13.144zM44 676.572q0 7.428 5.714 13.144l28.57 28.57q5.714 5.714 13.144 5.714t13.144-5.714l224.57-224.57 224.57 224.57q5.714 5.714 13.144 5.714t13.144-5.714l28.572-28.57q5.714-5.714 5.714-13.144t-5.714-13.144l-266.286-266.286q-5.714-5.714-13.142-5.714t-13.144 5.714l-266.286 266.286q-5.714 5.714-5.714 13.144z" horiz-adv-x="658" />
<glyph unicode="&#xf104;" d="M25.714 402.286q0 7.428 5.714 13.144l266.286 266.286q5.714 5.714 13.142 5.714t13.144-5.714l28.572-28.572q5.714-5.714 5.714-13.142t-5.714-13.144l-224.57-224.572 224.57-224.572q5.714-5.714 5.714-13.144t-5.714-13.144l-28.572-28.572q-5.714-5.714-13.144-5.714t-13.144 5.714l-266.286 266.286q-5.714 5.714-5.714 13.144z" horiz-adv-x="366" />
<glyph unicode="&#xf105;" d="M7.43 164.572q0 7.428 5.714 13.144l224.57 224.572-224.57 224.572q-5.714 5.714-5.714 13.144t5.714 13.144l28.57 28.572q5.714 5.714 13.144 5.714t13.144-5.714l266.286-266.286q5.714-5.714 5.714-13.144t-5.714-13.144l-266.286-266.286q-5.714-5.714-13.144-5.714t-13.144 5.714l-28.572 28.572q-5.714 5.714-5.714 13.144z" horiz-adv-x="366" />
<glyph unicode="&#xf106;" d="M44 274.286q0 7.428 5.714 13.144l266.286 266.286q5.714 5.714 13.144 5.714t13.144-5.714l266.286-266.286q5.714-5.714 5.714-13.144t-5.714-13.144l-28.572-28.572q-5.714-5.714-13.144-5.714t-13.144 5.714l-224.572 224.572-224.57-224.572q-5.714-5.714-13.144-5.714t-13.144 5.714l-28.57 28.572q-5.714 5.714-5.714 13.144z" horiz-adv-x="658" />
<glyph unicode="&#xf107;" d="M44 530.286q0 7.428 5.714 13.144l28.57 28.572q5.714 5.714 13.144 5.714t13.144-5.714l224.57-224.572 224.57 224.572q5.714 5.714 13.144 5.714t13.144-5.714l28.572-28.572q5.714-5.714 5.714-13.144t-5.714-13.144l-266.286-266.286q-5.714-5.714-13.142-5.714t-13.144 5.714l-266.286 266.286q-5.714 5.714-5.714 13.144z" horiz-adv-x="658" />
<glyph unicode="&#xf133;" d="M0 0v731.429q0 29.714 21.714 51.429t51.429 21.714h73.143v54.857q0 37.714 26.857 64.571t64.571 26.857h36.571q37.714 0 64.571-26.857t26.857-64.571v-54.857h219.429v54.857q0 37.714 26.857 64.571t64.571 26.857h36.571q37.714 0 64.571-26.857t26.857-64.571v-54.857h73.143q29.714 0 51.429-21.714t21.714-51.429v-731.429q0-29.714-21.714-51.429t-51.429-21.714h-804.571q-29.714 0-51.429 21.714t-21.714 51.429zM73.143 0h804.571v585.143h-804.571v-585.143zM219.429 694.857q0-8 5.143-13.143t13.143-5.143h36.571q8 0 13.143 5.143t5.143 13.143v164.571q0 8-5.143 13.143t-13.143 5.143h-36.571q-8 0-13.143-5.143t-5.143-13.143v-164.571zM658.286 694.857q0-8 5.143-13.143t13.143-5.143h36.571q8 0 13.143 5.143t5.143 13.143v164.571q0 8-5.143 13.143t-13.143 5.143h-36.571q-8 0-13.143-5.143t-5.143-13.143v-164.571z" horiz-adv-x="951" />
<glyph unicode="&#xf143;" d="M0 164.572v548.572q0 68 48.286 116.286t116.286 48.286h548.572q68 0 116.286-48.286t48.286-116.286v-548.572q0-68-48.286-116.286t-116.286-48.286h-548.572q-68 0-116.286 48.286t-48.286 116.286zM146.286 219.428q0-30.286 21.43-51.714t51.714-21.428 51.714 21.428 21.428 51.714-21.428 51.714-51.714 21.428-51.714-21.428-21.43-51.714zM146.286 401.714q0-7.428 4.856-12.572t12.286-5.714q88-6.286 150.856-69.144t69.142-150.856q0.572-7.428 5.714-12.286t12.572-4.856h73.142q7.428 0 13.144 5.714t5.142 13.714q-7.428 132.572-101.142 226.286t-226.286 101.144q-8 0.572-13.714-5.144t-5.714-13.142v-73.144zM146.286 621.144q0-7.428 5.144-12.572t12.57-5.714q116.572-4 216-63.714t159.144-159.142 63.714-216q0.572-7.428 5.714-12.572t12.572-5.144h73.144q7.428 0 13.144 5.714 6.286 5.144 5.144 13.144-2.856 88-32 170t-79.714 148.572-117.144 117.144-148.572 79.714-170 32q-8 0.572-13.144-5.142-5.714-5.714-5.714-13.144v-73.144z" />
<glyph unicode="&#xf15b;" d="M0-18.286v914.286q0 22.857 16 38.857t38.857 16h457.143v-310.857q0-22.857 16-38.857t38.857-16h310.857v-603.429q0-22.857-16-38.857t-38.857-16h-768q-22.857 0-38.857 16t-16 38.857zM585.143 658.286v269.714q12.571-8 20.571-16l233.143-233.143q8-8 16-20.571h-269.714z" />
<glyph unicode="&#xf15c;" d="M0-18.286v914.286q0 22.857 16 38.857t38.857 16h457.143v-310.857q0-22.857 16-38.857t38.857-16h310.857v-603.429q0-22.857-16-38.857t-38.857-16h-768q-22.857 0-38.857 16t-16 38.857zM219.429 164.571q0-8 5.143-13.143t13.143-5.143h402.286q8 0 13.143 5.143t5.143 13.143v36.571q0 8-5.143 13.143t-13.143 5.143h-402.286q-8 0-13.143-5.143t-5.143-13.143v-36.571zM219.429 310.857q0-8 5.143-13.143t13.143-5.143h402.286q8 0 13.143 5.143t5.143 13.143v36.571q0 8-5.143 13.143t-13.143 5.143h-402.286q-8 0-13.143-5.143t-5.143-13.143v-36.571zM219.429 457.143q0-8 5.143-13.143t13.143-5.143h402.286q8 0 13.143 5.143t5.143 13.143v36.571q0 8-5.143 13.143t-13.143 5.143h-402.286q-8 0-13.143-5.143t-5.143-13.143v-36.571zM585.143 658.286v269.714q12.571-8 20.571-16l233.143-233.143q8-8 16-20.571h-269.714z" />
<glyph unicode="&#xf164;" d="M0 109.714v365.714q0 14.857 10.857 25.714t25.714 10.857h164.571q14.857 0 25.714-10.857t10.857-25.714v-365.714q0-14.857-10.857-25.714t-25.714-10.857h-164.571q-14.857 0-25.714 10.857t-10.857 25.714zM73.143 182.857q0-15.429 10.571-26t26-10.571q14.857 0 25.714 10.571t10.857 26q0 14.857-10.857 25.714t-25.714 10.857q-15.429 0-26-10.857t-10.571-25.714zM274.286 109.714v366.286q0 14.286 10.286 24.857t24.571 11.714q13.714 1.143 43.429 33.714t57.714 69.143q38.857 49.714 57.714 68.571 10.286 10.286 17.714 27.429t10 27.714 7.714 34.571q4 22.286 7.143 34.857t11.143 29.714 19.429 28.571q10.857 10.857 25.714 10.857 26.286 0 47.143-6t34.286-14.857 22.857-23.143 13.714-25.714 6.857-28.571 2.857-25.714 0.286-22.286q0-21.714-5.429-43.429t-10.857-34.286-15.714-32q-1.714-3.429-5.714-10.286t-6.286-12.571-4.571-13.714h158.286q44.571 0 77.143-32.571t32.571-77.143q0-49.143-31.429-85.143 8.571-25.143 8.571-43.429 1.714-43.429-24.571-78.286 9.714-32 0-66.857-8.571-32.571-30.857-53.714 5.143-64-28-103.429-36.571-43.429-112.571-44.571h-73.714q-37.714 0-82.286 8.857t-69.429 16.571-68.857 22.571q-70.286 24.571-90.286 25.143-14.857 0.571-25.714 11.143t-10.857 25.429z" horiz-adv-x="951" />
<glyph unicode="&#xf166;" d="M0 164.572v548.572q0 68 48.286 116.286t116.286 48.286h548.572q68 0 116.286-48.286t48.286-116.286v-548.572q0-68-48.286-116.286t-116.286-48.286h-548.572q-68 0-116.286 48.286t-48.286 116.286zM124.57 282.286q0-100.572 11.43-148.572 5.714-24.572 24.286-41.714t43.144-20q78.286-8.572 235.43-8.572t235.43 8.572q24.572 2.856 43.144 20t24.286 41.714q11.428 48 11.428 148.572 0 101.144-10.856 148.572-5.714 25.144-24.572 42t-43.428 19.714q-77.714 8.572-235.428 8.572-157.144 0-234.856-8.572-25.144-2.856-43.714-19.714t-24.286-42q-11.43-49.714-11.43-148.572zM171.43 388v40h132.57v-40h-45.714v-241.714h-42.286v241.714h-44.57zM226.286 823.428l13.714-39.428t13.144-39.428q20-58.856 26.286-90.286v-114.856h42.286v114.856l51.43 169.142h-42.856l-29.144-111.428-30.286 111.428h-44.57zM309.714 190.286v165.714h37.714v-154.286q0-13.714 0.572-14.856 0.572-8.572 8.572-8.572 11.428 0 24 17.714v160h38.286v-209.714h-38.286v22.856q-22.286-25.714-43.428-25.714-18.856 0-24 16-3.428 9.144-3.428 30.856zM373.714 608q0-33.142 12-49.714 15.428-21.714 44.57-21.714 28 0 44.572 21.714 12 15.428 12 49.714v74.286q0 33.142-12 49.714-16.572 21.714-44.572 21.714-29.144 0-44.572-21.714-12-16.572-12-49.714v-74.286zM412 600.572v89.144q0 29.714 18.286 29.714t18.286-29.714v-89.144q0-29.144-18.286-29.144t-18.286 29.144zM451.428 146.286v281.714h38.286v-92q18.286 22.856 38.858 22.856 23.428 0 30.286-24 4-12 4-42.286v-83.428q0-29.714-4-41.714-6.856-24-30.286-24-20 0-38.856 23.428v-20.572h-38.286zM489.714 187.428q9.142-9.144 18.858-9.144 16.572 0 16.572 28v89.714q0 28.572-16.572 28.572-9.714 0-18.856-9.144v-128zM518.286 583.428q0-21.144 3.428-31.428 6.286-15.428 24.572-15.428 20.572 0 44 25.714v-22.856h38.286v211.428h-38.286v-161.714q-12.572-17.714-24-17.714-8.572 0-9.144 9.144-0.572 1.142-0.572 14.856v155.428h-38.286v-167.428zM592.572 214.286v73.714q0 33.714 11.428 49.144 16.572 21.714 45.714 21.714t44.572-21.714q12-16 12-49.144v-43.428h-76v-37.144q0-29.144 19.428-29.144 13.714 0 17.144 14.856 0 0.572 0.286 4t0.286 9.428v12.286h38.856v-5.144q0-16.572-1.144-24.572-1.714-12.572-8.572-22.856-15.428-22.856-45.714-22.856-29.714 0-46.286 21.714-12 15.428-12 49.144zM630.286 276h37.714v19.428q0 29.144-18.856 29.144t-18.856-29.144v-19.428z" />
<glyph unicode="&#xf169;" d="M0 164.572v548.572q0 68 48.286 116.286t116.286 48.286h548.572q68 0 116.286-48.286t48.286-116.286v-548.572q0-68-48.286-116.286t-116.286-48.286h-548.572q-68 0-116.286 48.286t-48.286 116.286zM129.714 299.428q4.57-7.428 13.714-7.428h105.714q17.714 0 28.572 20.572l113.714 201.144q0 0.572-72 126.856-12 19.428-29.714 19.428h-105.144q-10.286 0-14.856-6.286-4-6.856 0.57-16.572l71.43-123.428v-0.572l-112-197.714q-5.144-8 0-16zM364.572 368q0.572-1.144 149.714-274.856 11.428-20 29.714-20h105.144q10.286 0 14.286 6.856 4.572 7.428-0.572 16l-148.572 272v0.572l233.714 413.142q4.572 9.144 0 16-4 6.856-13.714 6.856h-106.856q-17.144 0-28-20z" />
<glyph unicode="&#xf16d;" d="M0 112.572v652.572q0 46.286 33.144 79.428t79.43 33.144h652.572q46.286 0 79.428-33.144t33.144-79.428v-652.572q0-46.286-33.144-79.428t-79.428-33.144h-652.572q-46.286 0-79.43 33.144t-33.144 79.428zM97.714 136q0-14.856 10-24.856t24.856-10h610.856q14.286 0 24.572 10t10.286 24.856v370.286h-77.144q11.428-36 11.428-74.856 0-72-36.572-132.856t-99.428-96.286-137.144-35.428q-112.572 0-192.57 77.428t-80 187.144q0 38.856 11.43 74.856h-80.57v-370.286zM263.428 440.572q0-70.856 51.714-120.856t124.286-50q73.144 0 124.856 50t51.714 120.856-51.714 120.856-124.856 50q-72.572 0-124.286-50t-51.714-120.856zM600 646.286q0-16.572 11.428-28t28-11.428h99.428q16.572 0 28 11.428t11.428 28v94.286q0 16-11.428 27.714t-28 11.714h-99.428q-16.572 0-28-11.714t-11.428-27.714v-94.286z" />
<glyph unicode="&#xf182;" d="M0 347.428q0 16.572 9.144 30.286l146.286 219.428q41.714 61.144 100.57 61.144h219.428q58.856 0 100.572-61.144l146.286-219.428q9.144-13.714 9.144-30.286 0-22.856-16-38.856t-38.856-16q-29.144 0-45.714 24.572l-129.714 194.856h-25.714v-75.428l141.144-234.856q5.144-8.572 5.144-18.856 0-14.856-10.856-25.714t-25.714-10.856h-109.714v-155.428q0-26.286-18.858-45.144t-45.144-18.858h-91.428q-26.286 0-45.144 18.856t-18.856 45.144v155.428h-109.714q-14.856 0-25.714 10.856t-10.856 25.714q0 10.286 5.144 18.856l141.142 234.856v75.428h-25.714l-129.714-194.856q-16.57-24.572-45.714-24.572-22.856 0-38.856 16t-16 38.856zM237.714 804.572q0 53.144 37.43 90.572t90.572 37.428 90.572-37.428 37.428-90.572-37.428-90.57-90.572-37.43-90.572 37.43-37.43 90.57z" horiz-adv-x="732" />
<glyph unicode="&#xf183;" d="M0 310.858v237.714q0 45.714 32 77.714t77.714 32h365.714q45.714 0 77.714-32t32-77.714v-237.714q0-22.856-16-38.856t-38.856-16-38.856 16-16 38.856v201.144h-36.572v-521.144q0-26.286-18.856-45.144t-45.144-18.856-45.144 18.856-18.856 45.144v265.144h-36.572v-265.144q0-26.286-18.856-45.144t-45.144-18.856-45.144 18.856-18.856 45.144v521.144h-36.57v-201.144q0-22.856-16-38.856t-38.856-16-38.856 16-16 38.856zM164.57 804.572q0 53.144 37.43 90.572t90.572 37.428 90.572-37.428 37.428-90.572-37.428-90.57-90.572-37.43-90.57 37.43-37.43 90.57z" horiz-adv-x="586" />
<glyph unicode="&#xf19c;" d="M0 0q0 14.857 11.714 25.714t27.714 10.857h1018.286q16 0 27.714-10.857t11.714-25.714v-73.143h-1097.143v73.143zM0 658.286v73.143l548.571 219.429 548.571-219.429v-73.143h-73.143q0-14.857-11.714-25.714t-27.714-10.857h-872q-16 0-27.714 10.857t-11.714 25.714h-73.143zM73.143 73.143v36.571q0 14.857 11.714 25.714t27.714 10.857h33.714v438.857h146.286v-438.857h73.143v438.857h146.286v-438.857h73.143v438.857h146.286v-438.857h73.143v438.857h146.286v-438.857h33.714q16 0 27.714-10.857t11.714-25.714v-36.571h-950.857z" horiz-adv-x="1170" />
<glyph unicode="&#xf19d;" d="M0 658.286q0 13.143 12.571 17.714l640 201.143q2.286 0.571 5.714 0.571t5.714-0.571l640-201.143q12.571-4.571 12.571-17.714t-12.571-17.714l-640-201.143q-2.286-0.571-5.714-0.571t-5.714 0.571l-372.571 117.714q-24.571-19.429-40.571-63.714t-19.429-102q36-20.571 36-62.286 0-39.429-33.143-61.143l33.143-247.429q1.143-8-4.571-14.286-5.143-6.286-13.714-6.286h-109.714q-8.571 0-13.714 6.286-5.714 6.286-4.571 14.286l33.143 247.429q-33.143 21.714-33.143 61.143 0 41.714 37.143 63.429 6.286 118.286 56 188.571l-190.286 59.429q-12.571 4.571-12.571 17.714zM292.571 292.571l10.286 180.571 328-103.429q12.571-4 27.429-4t27.429 4l328 103.429 10.286-180.571q2.286-39.429-46.857-73.143t-134.286-53.429-184.571-19.714-184.571 19.714-134.286 53.429-46.857 73.143z" horiz-adv-x="1317" />
<glyph unicode="&#xf1c1;" d="M0-18.286v914.286q0 22.857 16 38.857t38.857 16h512q22.857 0 50.286-11.429t43.429-27.429l178.286-178.286q16-16 27.429-43.429t11.429-50.286v-658.286q0-22.857-16-38.857t-38.857-16h-768q-22.857 0-38.857 16t-16 38.857zM73.143 0h731.429v585.143h-237.714q-22.857 0-38.857 16t-16 38.857v237.714h-438.857v-877.714zM146.857 107.428q5.143 22.857 32 52.286t75.429 55.143q8 5.143 13.143-3.429 1.143-1.143 1.143-2.286 29.714 48.571 61.143 112.571 38.857 77.714 59.429 149.714-13.714 46.857-17.429 91.143t3.714 72.857q6.286 22.857 24 22.857h12.571q13.143 0 20-8.571 10.286-12 5.143-38.857-1.143-3.429-2.286-4.571 0.571-1.714 0.571-4.571v-17.143q-1.143-70.286-8-109.714 31.429-93.714 83.429-136 18.857-14.857 48-32 33.714 4 66.857 4 84 0 101.143-28 9.143-12.571 1.143-29.714 0-0.571-0.571-1.143l-1.143-1.143v-0.571q-3.429-21.714-40.571-21.714-27.429 0-65.714 11.429t-74.286 30.286q-126.286-13.714-224-47.429-87.429-149.714-138.286-149.714-8.571 0-16 4l-13.714 6.857q-0.571 0.571-3.429 2.857-5.714 5.714-3.429 20.571zM181.714 104q29.714 13.714 78.286 90.286-29.143-22.857-50-48t-28.286-42.286zM338.286 252q77.143 30.857 162.286 46.286-1.143 0.571-7.429 5.429t-9.143 7.714q-43.429 38.286-72.571 100.571-15.429-49.143-47.429-112.571-17.143-32-25.714-47.429zM408 554.286q0.571 4 4 25.143 0 1.714 4 24.571 0.571 2.286 2.286 4.571-0.571 0.571-0.571 1.143t-0.286 0.857-0.286 0.857q-0.571 12.571-7.429 20.571 0-0.571-0.571-1.143v-1.143q-8.571-24-1.143-75.429zM585.143 658.286h214.857q-5.714 16.571-12.571 23.429l-178.857 178.857q-6.857 6.857-23.429 12.571v-214.857zM627.429 274.857q43.429-16 70.857-16 8 0 10.286 0.571 0 0.571-1.143 1.714-13.714 13.714-80 13.714z" />
<glyph unicode="&#xf1c2;" d="M0-18.286v914.286q0 22.857 16 38.857t38.857 16h512q22.857 0 50.286-11.429t43.429-27.429l178.286-178.286q16-16 27.429-43.429t11.429-50.286v-658.286q0-22.857-16-38.857t-38.857-16h-768q-22.857 0-38.857 16t-16 38.857zM73.143 0h731.429v585.143h-237.714q-22.857 0-38.857 16t-16 38.857v237.714h-438.857v-877.714zM133.143 450.857h40l93.714-377.714h90.857l73.143 277.143q4 11.429 5.714 26.286 1.143 9.143 1.143 13.714h2.286l1.714-13.714q0.571-1.714 2-11.429t3.143-14.857l73.143-277.143h90.857l93.714 377.714h40v61.143h-171.429v-61.143h51.429l-56.571-250.286q-2.857-11.429-4-26.286l-1.143-12h-2.286l-1.714 12q-0.571 2.857-2.286 12t-2.857 14.286l-82.286 311.429h-65.143l-82.286-311.429q-1.143-5.143-2.571-14t-2-12.286l-2.286-12h-2.286l-1.143 12q-1.143 14.857-4 26.286l-56.571 250.286h51.429v61.143h-171.429v-61.143zM585.143 658.286h214.857q-5.714 16.571-12.571 23.429l-178.857 178.857q-6.857 6.857-23.429 12.571v-214.857z" />
<glyph unicode="&#xf1c3;" d="M0-18.286v914.286q0 22.857 16 38.857t38.857 16h512q22.857 0 50.286-11.429t43.429-27.429l178.286-178.286q16-16 27.429-43.429t11.429-50.286v-658.286q0-22.857-16-38.857t-38.857-16h-768q-22.857 0-38.857 16t-16 38.857zM73.143 0h731.429v585.143h-237.714q-22.857 0-38.857 16t-16 38.857v237.714h-438.857v-877.714zM245.143 73.143h160.571v60.571h-42.857l58.857 92q2.857 4 5.714 9.429t4.286 7.714 2 2.286h1.143q0.571-2.286 2.857-5.714 1.143-2.286 2.571-4.286t3.429-4.571 3.714-4.857l61.143-92h-43.429v-60.571h166.286v60.571h-38.857l-109.714 156 111.429 161.143h38.286v61.143h-159.429v-61.143h42.286l-58.857-90.857q-2.286-4-5.714-9.429t-5.143-7.714l-1.143-1.714h-1.143q-0.571 2.286-2.857 5.714-3.429 6.286-9.714 13.143l-60.571 90.857h43.429v61.143h-165.714v-61.143h38.857l108-155.429-110.857-161.714h-38.857v-60.571zM585.143 658.286h214.857q-5.714 16.571-12.571 23.429l-178.857 178.857q-6.857 6.857-23.429 12.571v-214.857z" />
<glyph unicode="&#xf1c4;" d="M0-18.286v914.286q0 22.857 16 38.857t38.857 16h512q22.857 0 50.286-11.429t43.429-27.429l178.286-178.286q16-16 27.429-43.429t11.429-50.286v-658.286q0-22.857-16-38.857t-38.857-16h-768q-22.857 0-38.857 16t-16 38.857zM73.143 0h731.429v585.143h-237.714q-22.857 0-38.857 16t-16 38.857v237.714h-438.857v-877.714zM237.714 73.143h186.857v60.571h-53.143v95.429h78.286q43.429 0 67.429 8.571 38.286 13.143 60.857 49.714t22.571 83.429q0 46.286-21.143 80.571t-57.143 49.714q-27.429 10.857-74.286 10.857h-210.286v-61.143h52.571v-317.143h-52.571v-60.571zM371.429 293.714v153.143h68.571q29.714 0 47.429-10.286 32-18.857 32-65.714 0-50.857-35.429-68.571-17.714-8.571-44.571-8.571h-68zM585.143 658.286h214.857q-5.714 16.571-12.571 23.429l-178.857 178.857q-6.857 6.857-23.429 12.571v-214.857z" />
<glyph unicode="&#xf1c5;" d="M0-18.286v914.286q0 22.857 16 38.857t38.857 16h512q22.857 0 50.286-11.429t43.429-27.429l178.286-178.286q16-16 27.429-43.429t11.429-50.286v-658.286q0-22.857-16-38.857t-38.857-16h-768q-22.857 0-38.857 16t-16 38.857zM73.143 0h731.429v585.143h-237.714q-22.857 0-38.857 16t-16 38.857v237.714h-438.857v-877.714zM146.286 73.143v109.714l109.714 109.714 73.143-73.143 219.429 219.429 182.857-182.857v-182.857h-585.143zM146.286 475.428q0 45.714 32 77.714t77.714 32 77.714-32 32-77.714-32-77.714-77.714-32-77.714 32-32 77.714zM585.143 658.286h214.857q-5.714 16.571-12.571 23.429l-178.857 178.857q-6.857 6.857-23.429 12.571v-214.857z" />
<glyph unicode="&#xf1c6;" d="M0-18.286v914.286q0 22.857 16 38.857t38.857 16h512q22.857 0 50.286-11.429t43.429-27.429l178.286-178.286q16-16 27.429-43.429t11.429-50.286v-658.286q0-22.857-16-38.857t-38.857-16h-768q-22.857 0-38.857 16t-16 38.857zM73.143 0h731.429v585.143h-237.714q-22.857 0-38.857 16t-16 38.857v237.714h-73.143v-73.143h-73.143v73.143h-292.571v-877.714zM219.429 182.857q0 14.286 4.571 29.714 12 36 68.571 226.286v73.143h73.143v-73.143h45.143q12.571 0 22.286-7.429t13.143-19.429l61.143-199.429q4.571-15.429 4.571-29.714 0-47.429-41.429-78.571t-104.857-31.143-104.857 31.143-41.429 78.571zM292.571 182.857q0-14.857 21.429-25.714t51.714-10.857 51.714 10.857 21.429 25.714-21.429 25.714-51.714 10.857-51.714-10.857-21.429-25.714zM292.571 585.143h73.143v73.143h-73.143v-73.143zM292.571 731.428h73.143v73.143h-73.143v-73.143zM365.714 512h73.143v73.143h-73.143v-73.143zM365.714 658.286h73.143v73.143h-73.143v-73.143zM585.143 658.286h214.857q-5.714 16.571-12.571 23.429l-178.857 178.857q-6.857 6.857-23.429 12.571v-214.857z" />
<glyph unicode="&#xf1c7;" d="M0-18.286v914.286q0 22.857 16 38.857t38.857 16h512q22.857 0 50.286-11.429t43.429-27.429l178.286-178.286q16-16 27.429-43.429t11.429-50.286v-658.286q0-22.857-16-38.857t-38.857-16h-768q-22.857 0-38.857 16t-16 38.857zM73.143 0h731.429v585.143h-237.714q-22.857 0-38.857 16t-16 38.857v237.714h-438.857v-877.714zM146.286 237.714v109.714q0 8 5.143 13.143t13.143 5.143h74.857l94.857 95.429q9.143 8.571 20 4 11.429-4.571 11.429-17.143v-310.857q0-12.571-11.429-17.143-4.571-1.143-6.857-1.143-6.857 0-13.143 5.143l-94.857 95.429h-74.857q-8 0-13.143 5.143t-5.143 13.143zM435.429 191.143q0.571-15.143 11.429-25.429 11.429-9.714 25.143-9.714 15.429 0 26.857 11.429 49.714 53.143 49.714 125.143t-49.714 125.143q-10.286 10.857-25.714 11.429t-26.286-9.714-11.429-25.429 10.286-26.571q29.714-32.571 29.714-74.857t-29.714-74.857q-10.857-11.429-10.286-26.571zM556.286 104.286q1.429-15.143 13.429-24.286 10.286-8.571 22.857-8.571 17.714 0 28.571 13.714 73.714 90.857 73.714 207.429t-73.714 207.429q-9.143 12-24.571 13.714t-26.857-8q-12-9.714-13.429-24.857t8.286-27.143q57.143-70.286 57.143-161.143t-57.143-161.143q-9.714-12-8.286-27.143zM585.143 658.286h214.857q-5.714 16.571-12.571 23.429l-178.857 178.857q-6.857 6.857-23.429 12.571v-214.857z" />
<glyph unicode="&#xf1c8;" d="M0-18.286v914.286q0 22.857 16 38.857t38.857 16h512q22.857 0 50.286-11.429t43.429-27.429l178.286-178.286q16-16 27.429-43.429t11.429-50.286v-658.286q0-22.857-16-38.857t-38.857-16h-768q-22.857 0-38.857 16t-16 38.857zM73.143 0h731.429v585.143h-237.714q-22.857 0-38.857 16t-16 38.857v237.714h-438.857v-877.714zM146.286 219.428v219.429q0 29.714 21.714 51.429t51.429 21.714h219.429q29.714 0 51.429-21.714t21.714-51.429v-219.429q0-29.714-21.714-51.429t-51.429-21.714h-219.429q-29.714 0-51.429 21.714t-21.714 51.429zM548.571 303.428v51.429l151.429 152q5.143 5.143 13.143 5.143 2.286 0 6.857-1.143 11.429-4.571 11.429-17.143v-329.143q0-12.571-11.429-17.143-4.571-1.143-6.857-1.143-8 0-13.143 5.143zM585.143 658.286h214.857q-5.714 16.571-12.571 23.429l-178.857 178.857q-6.857 6.857-23.429 12.571v-214.857z" />
<glyph unicode="&#xf1e0;" d="M0 438.858q0 76 53.43 129.428t129.43 53.428q72 0 124.57-49.144l205.714 102.856q-1.144 12.572-1.144 19.428 0 76 53.428 129.428t129.428 53.43 129.428-53.43 53.428-129.428-53.428-129.428-129.428-53.428q-72 0-124.572 49.144l-205.714-102.856q1.142-12.572 1.142-19.428t-1.142-19.428l205.714-102.856q52.572 49.144 124.572 49.144 76 0 129.428-53.428t53.428-129.428-53.428-129.428-129.428-53.428-129.428 53.428-53.428 129.428q0 6.856 1.144 19.428l-205.714 102.856q-52.57-49.144-124.57-49.144-76 0-129.43 53.428t-53.43 129.428z" />
<glyph unicode="&#xf1e2;" d="M0 329.143q0 81.714 31.714 156.286t85.714 128.571 128.571 85.714 156.286 31.714q104 0 196-50.857l36.571 36.571q10.857 10.857 26 10.857t26-10.857l38.857-38.857 138.857 139.429 26.286-26.286-139.429-138.857 38.857-38.857q10.857-10.857 10.857-26t-10.857-26l-36.571-36.571q50.857-92 50.857-196 0-81.714-31.714-156.286t-85.714-128.571-128.571-85.714-156.286-31.714-156.286 31.714-128.571 85.714-85.714 128.571-31.714 156.286zM97.143 424.571q5.714-13.714 20-19.429 7.429-2.857 13.714-2.857 24 0 34.286 22.857 19.429 48 56.286 84.857t84.857 56.286q14.286 6.286 20 20t0 28-19.429 20-28 0q-61.714-25.143-109.143-72.571t-72.571-109.143q-5.714-14.286 0-28zM786.286 914.286q0 7.429 5.143 13.143 5.714 5.143 13.143 5.143t13.143-5.143l51.429-52q5.714-5.143 5.714-12.857t-5.714-12.857q-5.714-5.714-12.571-5.714-7.429 0-13.143 5.714l-52 51.429q-5.143 5.714-5.143 13.143zM877.714 877.714v54.857q0 8 5.143 13.143t13.143 5.143 13.143-5.143 5.143-13.143v-54.857q0-8-5.143-13.143t-13.143-5.143-13.143 5.143-5.143 13.143zM917.143 783.143q0 7.714 5.714 12.857 5.143 5.714 12.857 5.714t12.857-5.714l52-51.429q5.143-5.714 5.143-13.143t-5.143-13.143q-6.286-5.143-13.143-5.143t-13.143 5.143l-51.429 52q-5.714 5.143-5.714 12.857zM917.143 862.571q0 7.714 5.714 12.857l51.429 52q5.714 5.143 13.143 5.143t13.143-5.143q5.143-5.714 5.143-13.143t-5.143-13.143l-52-51.429q-5.714-5.714-12.571-5.714-7.429 0-13.143 5.714-5.714 5.143-5.714 12.857zM932.571 822.857q0 8 5.143 13.143t13.143 5.143h54.857q8 0 13.143-5.143t5.143-13.143-5.143-13.143-13.143-5.143h-54.857q-8 0-13.143 5.143t-5.143 13.143z" />
</font>
</defs>
</svg>
